GloDLS.to - Download Movies, TV, Games and Other Torrents Free RSS 2.0enGloDLS.to - Download Movies, TV, Games and Other Torrents FreeGloDLS.to - Download Movies, TV, Games and Other Torrents Free RSS Feedhttp://glodls.toCopyright GloDLS.to - Download Movies, TV, Games and Other Torrents FreeWed, 28 Jun 2017 02:58:59 +0100 Piper Perry - A Little Extra http://glodls.to/torrent.php?id=2588738 http://glodls.to/torrent.php?id=2588738 Wed, 28 Jun 2017 01:54:27 +0100 Adult XXX
[b]Date[/b]: 28.06.2017
[b]Cast[/b]: Piper Perry
[b]Genre[/b]: all sex
[b]Name[/b]: A Little Extra


[b]Video[/b]: 1920x1080 (16:9), 29.970 fps
[b]Audio[/b]: AAC, 128 Kbps, 2 ch, 48 KHz
[b]Format[/b]: mp4
[b]Duration[/b]: 00:25:10
]]>
Pretty.Little.Liars.S07E20E21.1080p.HDTV.X264-DIMENSION http://glodls.to/torrent.php?id=2588737 http://glodls.to/torrent.php?id=2588737 Wed, 28 Jun 2017 01:53:39 +0100 TV
[url=https://www.sparrowpics.com/image/LwB][img]https://www.sparrowpics.com/images/2015/12/10/Info.png[/img][/url]

[b]Complete name : Pretty.Little.Liars.S07E20E21.1080p.HDTV.X264-DIMENSION.mkv
Format : Matroska
Format version : Version 2
File size : 4.39 GiB
Duration : 1 h 28 min
Overall bit rate : 7 088 kb/s
Encoded date : UTC 2017-06-27 23:18:21
Writing application : mkvmerge v3.1.0 ('Happy up here') built on Jan 19 2010 12:09:24
Writing library : libebml v0.7.9 + libmatroska v0.8.1

Video
ID : 1
Format : AVC
Format/Info : Advanced Video Codec
Format profile : High@L4.1
Format settings, CABAC : Yes
Format settings, ReFrames : 4 frames
Codec ID : V_MPEG4/ISO/AVC
Duration : 1 h 28 min
Bit rate : 6 307 kb/s
Width : 1 920 pixels
Height : 1 070 pixels
Display aspect ratio : 16:9
Frame rate mode : Constant
Frame rate : 23.976 (24000/1001) FPS
Color space : YUV
Chroma subsampling : 4:2:0
Bit depth : 8 bits
Scan type : Progressive
Bits/(Pixel*Frame) : 0.128
Stream size : 3.90 GiB (89%)
Writing library : x264 core 150 r2833 df79067
Encoding settings : cabac=1 / ref=4 / deblock=1:-2:-2 / analyse=0x3:0x113 / me=umh / subme=11 / psy=1 / psy_rd=1.00:0.00 / mixed_ref=1 / me_range=32 / chroma_me=1 / trellis=2 / 8x8dct=1 / cqm=0 / deadzone=21,11 / fast_pskip=0 / chroma_qp_offset=-2 / threads=10 / lookahead_threads=1 / sliced_threads=0 / nr=0 / decimate=1 / interlaced=0 / bluray_compat=0 / constrained_intra=0 / bframes=5 / b_pyramid=2 / b_adapt=1 / b_bias=0 / direct=3 / weightb=1 / open_gop=0 / weightp=2 / keyint=250 / keyint_min=23 / scenecut=40 / intra_refresh=0 / rc_lookahead=50 / rc=crf / mbtree=1 / crf=17.0 / qcomp=0.60 / qpmin=0 / qpmax=69 / qpstep=4 / ip_ratio=1.40 / aq=1:1.00
Language : English
Default : No
Forced : No

Audio
ID : 2
Format : AC-3
Format/Info : Audio Coding 3
Format settings, Endianness : Big
Codec ID : A_AC3
Duration : 1 h 28 min
Bit rate mode : Constant
Bit rate : 640 kb/s
Channel(s) : 6 channels
Channel positions : Front: L C R, Side: L R, LFE
Sampling rate : 48.0 kHz
Frame rate : 31.250 FPS (1536 spf)
Bit depth : 16 bits
Compression mode : Lossy
Delay relative to video : 28 ms
Stream size : 406 MiB (9%)
Service kind : Complete Main
Default : Yes
Forced : No[/b]

[url=https://www.sparrowpics.com/image/UYe][img]https://www.sparrowpics.com/images/2015/12/10/Screens.png[/img][/url]

[URL=https://tv.sparrowpics.com/image/WBSU][IMG]https://tv.sparrowpics.com/images/2017/06/27/WBSU.th.jpg[/IMG][/URL]
[URL=https://tv.sparrowpics.com/image/WCf8][b]Click To View Screenshot[/b][/URL]
[URL=https://tv.sparrowpics.com/image/WceO][b]Click To View Screenshot[/b][/URL]
[URL=https://tv.sparrowpics.com/image/Wf7J][b]Click To View Screenshot[/b][/URL][/center] ]]>
Pretty.Little.Liars.S07E20E21.720p.HDTV.X264-DIMENSION http://glodls.to/torrent.php?id=2588736 http://glodls.to/torrent.php?id=2588736 Wed, 28 Jun 2017 01:37:37 +0100 TV
[url=https://www.sparrowpics.com/image/LwB][img]https://www.sparrowpics.com/images/2015/12/10/Info.png[/img][/url]

[b]Complete name : Pretty.Little.Liars.S07E20E21.720p.HDTV.X264-DIMENSION.mkv
Format : Matroska
Format version : Version 2
File size : 1.65 GiB
Duration : 1 h 28 min
Overall bit rate : 2 664 kb/s
Encoded date : UTC 2017-06-27 23:02:15
Writing application : mkvmerge v3.1.0 ('Happy up here') built on Jan 19 2010 12:09:24
Writing library : libebml v0.7.9 + libmatroska v0.8.1

Video
ID : 1
Format : AVC
Format/Info : Advanced Video Codec
Format profile : High@L4.1
Format settings, CABAC : Yes
Format settings, ReFrames : 8 frames
Codec ID : V_MPEG4/ISO/AVC
Duration : 1 h 28 min
Bit rate : 2 227 kb/s
Width : 1 280 pixels
Height : 714 pixels
Display aspect ratio : 16:9
Frame rate mode : Constant
Frame rate : 23.976 (24000/1001) FPS
Color space : YUV
Chroma subsampling : 4:2:0
Bit depth : 8 bits
Scan type : Progressive
Bits/(Pixel*Frame) : 0.102
Stream size : 1.38 GiB (84%)
Writing library : x264 core 150 r2833 df79067
Encoding settings : cabac=1 / ref=8 / deblock=1:-2:-2 / analyse=0x3:0x113 / me=umh / subme=9 / psy=1 / psy_rd=1.00:0.00 / mixed_ref=1 / me_range=24 / chroma_me=1 / trellis=2 / 8x8dct=1 / cqm=0 / deadzone=21,11 / fast_pskip=0 / chroma_qp_offset=-2 / threads=18 / lookahead_threads=1 / sliced_threads=0 / nr=0 / decimate=1 / interlaced=0 / bluray_compat=0 / constrained_intra=0 / bframes=5 / b_pyramid=2 / b_adapt=1 / b_bias=0 / direct=3 / weightb=1 / open_gop=0 / weightp=2 / keyint=250 / keyint_min=23 / scenecut=40 / intra_refresh=0 / rc_lookahead=50 / rc=crf / mbtree=1 / crf=18.0 / qcomp=0.60 / qpmin=0 / qpmax=69 / qpstep=4 / ip_ratio=1.40 / aq=1:1.00
Language : English
Default : No
Forced : No

Audio
ID : 2
Format : AC-3
Format/Info : Audio Coding 3
Format settings, Endianness : Big
Codec ID : A_AC3
Duration : 1 h 28 min
Bit rate mode : Constant
Bit rate : 384 kb/s
Channel(s) : 6 channels
Channel positions : Front: L C R, Side: L R, LFE
Sampling rate : 48.0 kHz
Frame rate : 31.250 FPS (1536 spf)
Bit depth : 16 bits
Compression mode : Lossy
Delay relative to video : 28 ms
Stream size : 243 MiB (14%)
Service kind : Complete Main
Default : Yes
Forced : No[/b]

[url=https://www.sparrowpics.com/image/UYe][img]https://www.sparrowpics.com/images/2015/12/10/Screens.png[/img][/url]

[URL=https://tv.sparrowpics.com/image/WVgd][IMG]https://tv.sparrowpics.com/images/2017/06/27/WVgd.th.jpg[/IMG][/URL]
[URL=https://tv.sparrowpics.com/image/WbLs][b]Click To View Screenshot[/b][/URL]
[URL=https://tv.sparrowpics.com/image/WlXK][b]Click To View Screenshot[/b][/URL]
[URL=https://tv.sparrowpics.com/image/Wn8X][b]Click To View Screenshot[/b][/URL][/center] ]]>
Pretty.Little.Liars.S07E20E21.HDTV.x264-LOL http://glodls.to/torrent.php?id=2588735 http://glodls.to/torrent.php?id=2588735 Wed, 28 Jun 2017 01:36:28 +0100 TV
[url=https://www.sparrowpics.com/image/LwB][img]https://www.sparrowpics.com/images/2015/12/10/Info.png[/img][/url]

[b]Complete name : pretty.little.liars.72021.hdtv-lol.mkv
Format : Matroska
Format version : Version 2
File size : 484 MiB
Duration : 1 h 28 min
Overall bit rate : 763 kb/s
Encoded date : UTC 2017-06-27 15:05:44
Writing application : mkvmerge v3.1.0 ('Happy up here') built on Jan 19 2010 12:09:24
Writing library : libebml v0.7.9 + libmatroska v0.8.1

Video
ID : 1
Format : AVC
Format/Info : Advanced Video Codec
Format profile : High@L3.1
Format settings, CABAC : Yes
Format settings, ReFrames : 5 frames
Codec ID : V_MPEG4/ISO/AVC
Duration : 1 h 28 min
Width : 720 pixels
Height : 402 pixels
Display aspect ratio : 16:9
Frame rate mode : Constant
Frame rate : 23.976 (24000/1001) FPS
Color space : YUV
Chroma subsampling : 4:2:0
Bit depth : 8 bits
Scan type : Progressive
Writing library : x264 core 150 r2833 df79067
Encoding settings : cabac=1 / ref=5 / deblock=1:1:1 / analyse=0x3:0x133 / me=umh / subme=9 / psy=1 / psy_rd=1.00:0.00 / mixed_ref=1 / me_range=16 / chroma_me=1 / trellis=2 / 8x8dct=1 / cqm=0 / deadzone=21,11 / fast_pskip=1 / chroma_qp_offset=-2 / threads=13 / lookahead_threads=1 / sliced_threads=0 / nr=0 / decimate=1 / interlaced=0 / bluray_compat=0 / constrained_intra=0 / bframes=3 / b_pyramid=2 / b_adapt=2 / b_bias=0 / direct=3 / weightb=1 / open_gop=0 / weightp=2 / keyint=250 / keyint_min=23 / scenecut=40 / intra_refresh=0 / rc_lookahead=60 / rc=crf / mbtree=1 / crf=20.0 / qcomp=0.60 / qpmin=0 / qpmax=69 / qpstep=4 / ip_ratio=1.40 / aq=1:1.00
Language : English
Default : No
Forced : No
Color range : Limited
Matrix coefficients : BT.709

Audio
ID : 2
Format : AAC
Format/Info : Advanced Audio Codec
Format profile : LC
Codec ID : A_AAC
Duration : 1 h 28 min
Channel(s) : 2 channels
Channel positions : Front: L R
Sampling rate : 48.0 kHz
Frame rate : 46.875 FPS (1024 spf)
Compression mode : Lossy
Default : Yes
Forced : No[/b]

[url=https://www.sparrowpics.com/image/UYe][img]https://www.sparrowpics.com/images/2015/12/10/Screens.png[/img][/url]

[URL=https://tv.sparrowpics.com/image/WpeY][IMG]https://tv.sparrowpics.com/images/2017/06/27/WpeY.th.jpg[/IMG][/URL]
[URL=https://tv.sparrowpics.com/image/WLYT][b]Click To View Screenshot[/b][/URL]
[URL=https://tv.sparrowpics.com/image/Wslb][b]Click To View Screenshot[/b][/URL]
[URL=https://tv.sparrowpics.com/image/W1A4][b]Click To View Screenshot[/b][/URL][/center] ]]>
The Lost City of Z (2016) 720p Web-DL x264 AAC ESubs - Downloadhub http://glodls.to/torrent.php?id=2588734 http://glodls.to/torrent.php?id=2588734 Wed, 28 Jun 2017 01:29:36 +0100 Movies
[img]https://extraimage.net/images/2017/05/10/0f98922bd359e7eaf5f6ad12fc86c758.png[/img]

[b][code]MOVIE INFO:
http://www.imdb.com/title/tt1212428/
[FORMAT]:…………………….[ Matroska
[CODEC]:………………[ x264
[GENRE]:……………………[ Action, Adventure, Biography
[FILE SIZE]:……………………[ 1106MB
[RESOLUTION]:……………….[ 1280x534
[LANGUAGE]:…………………[ English
[SUBTITLES]:………………..[ English
[ENCODER]:…………..[ Downloadhub
[SOURCE]:…………………..[ FGT Thanks[/code]

[Medai Info]: [url]https://linkshub.club/index.php?ID=389137960896000-paste[/url]

Sample Including In Torrent[/b]

[url=https://www.jiopic.com/image/YE6ze][img]https://www.jiopic.com/images/2017/06/28/vlcsnap-2017-06-27-20h08m24s687.th.png[/img][/url] [url=https://www.jiopic.com/image/YEfFS][img]https://www.jiopic.com/images/2017/06/28/vlcsnap-2017-06-27-20h08m34s273.th.png[/img][/url] [url=https://www.jiopic.com/image/YEUdE][img]https://www.jiopic.com/images/2017/06/28/vlcsnap-2017-06-27-20h09m05s998.th.png[/img][/url] [url=https://www.jiopic.com/image/YElJ7][img]https://www.jiopic.com/images/2017/06/28/vlcsnap-2017-06-27-20h09m16s760.th.png[/img][/url] [url=https://www.jiopic.com/image/YEr34][img]https://www.jiopic.com/images/2017/06/28/vlcsnap-2017-06-27-20h09m50s979.th.png[/img][/url] [url=https://www.jiopic.com/image/YEv62][img]https://www.jiopic.com/images/2017/06/28/vlcsnap-2017-06-27-20h10m11s620.th.png[/img][/url][/center] ]]>
My Wife Caught Me Assfucking Her Mother 11 iNTERNAL XXX 480p WEBRiP MP4-TK http://glodls.to/torrent.php?id=2588733 http://glodls.to/torrent.php?id=2588733 Wed, 28 Jun 2017 01:10:53 +0100 Adult XXX
[b]Screenshots:[/b]

[url]http://imgking.co/imgs-5953021ea5610.html[/url]

[url]http://imgking.co/imgs-5953021e984fc.html[/url]

[url]http://imgking.co/imgs-5953021e7f62b.html[/url]

[url]http://imgking.co/imgs-5953021bd87af.html[/url]

File Size : 970 MiB
Duration : 1h 57mn
Video : h264, yuv420p, 854x480p, 1024 Kbps
Audio : aac , 2 ch, stereo , 128 Kbps ]]>
Their.Finest.2016.BDRip.x264-GECKOS http://glodls.to/torrent.php?id=2588732 http://glodls.to/torrent.php?id=2588732 Wed, 28 Jun 2017 01:10:26 +0100 Movies
[b]ImDb: [URL]http://www.imdb.com/title/tt2025690[/URL][/b]

[url=https://www.sparrowpics.com/image/LwB][img]https://www.sparrowpics.com/images/2015/12/10/Info.png[/img][/url]

[b]Complete name : Their.Finest.2016.BDRip.x264-GECKOS.mkv
Format : Matroska
Format version : Version 4 / Version 2
File size : 503 MiB
Duration : 1 h 56 min
Overall bit rate : 601 kb/s
Encoded date : UTC 2017-06-28 00:17:28
Writing application : mkvmerge v8.3.0 ('Over the Horizon') 64bit
Writing library : libebml v1.3.1 + libmatroska v1.4.2

Video
ID : 1
Format : AVC
Format/Info : Advanced Video Codec
Format profile : High@L3.1
Format settings, CABAC : Yes
Format settings, ReFrames : 5 frames
Codec ID : V_MPEG4/ISO/AVC
Duration : 1 h 56 min
Bit rate : 499 kb/s
Width : 720 pixels
Height : 302 pixels
Display aspect ratio : 2.40:1
Frame rate mode : Constant
Frame rate : 23.976 FPS
Color space : YUV
Chroma subsampling : 4:2:0
Bit depth : 8 bits
Scan type : Progressive
Bits/(Pixel*Frame) : 0.096
Stream size : 417 MiB (83%)
Title : X264
Writing library : x264 core 150 r2833 df79067
Encoding settings : cabac=1 / ref=5 / deblock=1:-2:-2 / analyse=0x3:0x113 / me=hex / subme=8 / psy=1 / psy_rd=0.90:0.00 / mixed_ref=1 / me_range=16 / chroma_me=1 / trellis=2 / 8x8dct=1 / cqm=0 / deadzone=21,11 / fast_pskip=1 / chroma_qp_offset=-2 / threads=9 / lookahead_threads=1 / sliced_threads=0 / nr=0 / decimate=1 / interlaced=0 / bluray_compat=0 / constrained_intra=0 / bframes=3 / b_pyramid=2 / b_adapt=1 / b_bias=0 / direct=3 / weightb=1 / open_gop=0 / weightp=2 / keyint=250 / keyint_min=23 / scenecut=40 / intra_refresh=0 / rc_lookahead=50 / rc=crf / mbtree=1 / crf=19.0 / qcomp=0.60 / qpmin=0 / qpmax=69 / qpstep=4 / ip_ratio=1.40 / aq=1:1.00
Language : English
Default : Yes
Forced : No
Color range : Limited
Matrix coefficients : BT.709

Audio
ID : 2
Format : AAC
Format/Info : Advanced Audio Codec
Format profile : LC
Codec ID : A_AAC
Duration : 1 h 56 min
Bit rate : 101 kb/s
Channel(s) : 2 channels
Channel positions : Front: L R
Sampling rate : 48.0 kHz
Frame rate : 46.875 FPS (1024 spf)
Compression mode : Lossy
Stream size : 84.1 MiB (17%)
Language : English
Default : Yes
Forced : No

Menu
00:00:00.000 : en:00:00:00.000
00:07:49.302 : en:00:07:49.302
00:15:15.706 : en:00:15:15.706
00:21:08.017 : en:00:21:08.017
00:30:43.633 : en:00:30:43.633
00:38:24.052 : en:00:38:24.052
00:46:26.784 : en:00:46:26.784
00:53:51.186 : en:00:53:51.186
01:00:41.596 : en:01:00:41.596
01:08:32.358 : en:01:08:32.358
01:18:48.557 : en:01:18:48.557
01:22:49.798 : en:01:22:49.798
01:29:51.010 : en:01:29:51.010
01:37:05.403 : en:01:37:05.403
01:45:05.341 : en:01:45:05.341
01:50:42.260 : en:01:50:42.260[/b]

[url=https://www.sparrowpics.com/image/UYe][img]https://www.sparrowpics.com/images/2015/12/10/Screens.png[/img][/url]

[URL=https://www.sparrowpics.com/image/kRuM6][IMG]https://www.sparrowpics.com/images/2017/06/28/kRuM6.th.jpg[/IMG][/URL]
[URL=https://www.sparrowpics.com/image/kRZdh][b]Click To View Screenshot[/b][/URL]
[URL=https://www.sparrowpics.com/image/kR0Gt][b]Click To View Screenshot[/b][/URL]
[URL=https://www.sparrowpics.com/image/kRThZ][b]Click To View Screenshot[/b][/URL][/center] ]]>
Their.Finest.2016.BDRip.x264-GECKOS http://glodls.to/torrent.php?id=2588731 http://glodls.to/torrent.php?id=2588731 Wed, 28 Jun 2017 01:09:11 +0100 Movies [color=red][b]
Their.Finest.2016.BDRip.x264-GECKOS

[/b][/color]


IMDb: http://www.imdb.com/title/tt1661275/





[url=https://boltimg.com/image/t52z][img]https://boltimg.com/images/t52z.png[/img][/url]



[color=green][b]
General

(Duration): 1h 56mn
(FileSize): 503 MiB



Audio

(Format): AAC - Advanced Audio Codec
(Codec): AAC LC



Video

(Format): AVC - Advanced Video Codec
(Media): video/H264
(Format): x264
(Resolution): 720x302 px
(AspectRatio): 2.40:1
(FrameRate): 23.976 fps




[/b][/color]


[url=https://boltimg.com/image/tzTE][img]https://boltimg.com/images/tzTE.png[/img][/url]



[color=purple][b](Click to enlarge)[/b][/color]

[url=https://boltimg.com/image/W9Fsb][img]https://boltimg.com/images/W9Fsb.th.jpg[/img][/url] [url=https://boltimg.com/image/W9VqN][img]https://boltimg.com/images/W9VqN.th.jpg[/img][/url] [url=https://boltimg.com/image/W9if7][img]https://boltimg.com/images/W9if7.th.jpg[/img][/url] [url=https://boltimg.com/image/W9pdf][img]https://boltimg.com/images/W9pdf.th.jpg[/img][/url] [url=https://boltimg.com/image/W9J0O][img]https://boltimg.com/images/W9J0O.th.jpg[/img][/url] [url=https://boltimg.com/image/W98xS][img]https://boltimg.com/images/W98xS.th.jpg[/img][/url]

[/center]
]]>
Love.Island.S03E017.HDTV.x264-JIVE http://glodls.to/torrent.php?id=2588730 http://glodls.to/torrent.php?id=2588730 Wed, 28 Jun 2017 01:04:17 +0100 TV
[url=https://www.sparrowpics.com/image/LwB][img]https://www.sparrowpics.com/images/2015/12/10/Info.png[/img][/url]

[b]Complete name : Love.Island.S03E017.HDTV.x264-JIVE.mp4
Format : MPEG-4
Format profile : Base Media
Codec ID : isom (isom/iso2/avc1/mp41)
File size : 328 MiB
Duration : 45 min 56 s
Overall bit rate : 998 kb/s
Encoded date : UTC 1904-01-01 00:00:00
Tagged date : UTC 1904-01-01 00:00:00
Writing application : Lavf57.25.100

Video
ID : 1
Format : AVC
Format/Info : Advanced Video Codec
Format profile : High@L3.1
Format settings, CABAC : Yes
Format settings, ReFrames : 6 frames
Codec ID : avc1
Codec ID/Info : Advanced Video Coding
Duration : 45 min 56 s
Bit rate : 896 kb/s
Nominal bit rate : 1 104 kb/s
Width : 896 pixels
Height : 504 pixels
Display aspect ratio : 16:9
Frame rate mode : Constant
Frame rate : 25.000 FPS
Color space : YUV
Chroma subsampling : 4:2:0
Bit depth : 8 bits
Scan type : Progressive
Bits/(Pixel*Frame) : 0.079
Stream size : 294 MiB (90%)
Writing library : x264 core 138
Encoding settings : cabac=1 / ref=6 / deblock=1:-1:-1 / analyse=0x3:0x113 / me=umh / subme=8 / psy=1 / psy_rd=0.60:1.00 / mixed_ref=1 / me_range=16 / chroma_me=1 / trellis=2 / 8x8dct=1 / cqm=0 / deadzone=21,11 / fast_pskip=1 / chroma_qp_offset=-4 / threads=8 / lookahead_threads=1 / sliced_threads=0 / nr=0 / decimate=1 / interlaced=0 / bluray_compat=0 / constrained_intra=0 / bframes=3 / b_pyramid=0 / b_adapt=2 / b_bias=0 / direct=3 / weightb=1 / open_gop=0 / weightp=2 / keyint=150 / keyint_min=15 / scenecut=0 / intra_refresh=0 / rc_lookahead=60 / rc=cbr / mbtree=1 / bitrate=1104 / ratetol=1.0 / qcomp=0.60 / qpmin=0 / qpmax=69 / qpstep=4 / vbv_maxrate=1104 / vbv_bufsize=828 / nal_hrd=none / filler=0 / ip_ratio=1.40 / aq=1:1.40
Encoded date : UTC 1904-01-01 00:00:00
Tagged date : UTC 1904-01-01 00:00:00

Audio
ID : 2
Format : AAC
Format/Info : Advanced Audio Codec
Format profile : LC
Codec ID : 40
Duration : 45 min 56 s
Bit rate mode : Constant
Bit rate : 96.0 kb/s
Channel(s) : 2 channels
Channel positions : Front: L R
Sampling rate : 48.0 kHz
Frame rate : 46.875 FPS (1024 spf)
Compression mode : Lossy
Stream size : 31.6 MiB (10%)
Default : Yes
Alternate group : 1
Encoded date : UTC 1904-01-01 00:00:00
Tagged date : UTC 1904-01-01 00:00:00[/b]

[url=https://www.sparrowpics.com/image/UYe][img]https://www.sparrowpics.com/images/2015/12/10/Screens.png[/img][/url]

[URL=https://tv.sparrowpics.com/image/WJWf][IMG]https://tv.sparrowpics.com/images/2017/06/27/WJWf.th.jpg[/IMG][/URL]
[URL=https://tv.sparrowpics.com/image/Wy8r][b]Click To View Screenshot[/b][/URL]
[URL=https://tv.sparrowpics.com/image/W6Je][b]Click To View Screenshot[/b][/URL]
[URL=https://tv.sparrowpics.com/image/WUPB][b]Click To View Screenshot[/b][/URL][/center] ]]>
ExPatriot (2017) 720p Web-DL x264 AAC ESubs - Downloadhub http://glodls.to/torrent.php?id=2588729 http://glodls.to/torrent.php?id=2588729 Wed, 28 Jun 2017 00:37:58 +0100 Movies
[img]https://extraimage.net/images/2017/05/10/0f98922bd359e7eaf5f6ad12fc86c758.png[/img]

[b][code]MOVIE INFO:
http://www.imdb.com/title/tt5690472/
[FORMAT]:…………………….[ Matroska
[CODEC]:………………[ x264
[GENRE]:……………………[ Thriller
[FILE SIZE]:……………………[ 785MB
[RESOLUTION]:……………….[ 1280x716
[LANGUAGE]:…………………[ English
[SUBTITLES]:………………..[ English
[ENCODER]:…………..[ Downloadhub
[SOURCE]:…………………..[ FGT Thanks[/code]

[Medai Info]: [url]https://linkshub.club/index.php?ID=32748650118300-paste[/url]

Sample Including In Torrent[/b]

[url=https://www.jiopic.com/image/YEuY3][img]https://www.jiopic.com/images/2017/06/28/vlcsnap-2017-06-27-19h27m09s536.th.png[/img][/url] [url=https://www.jiopic.com/image/YEeE6][img]https://www.jiopic.com/images/2017/06/28/vlcsnap-2017-06-27-19h27m27s130.th.png[/img][/url] [url=https://www.jiopic.com/image/YEIAI][img]https://www.jiopic.com/images/2017/06/28/vlcsnap-2017-06-27-19h27m35s359.th.png[/img][/url] [url=https://www.jiopic.com/image/YEhho][img]https://www.jiopic.com/images/2017/06/28/vlcsnap-2017-06-27-19h28m21s639.th.png[/img][/url][/center] ]]>
Their.Finest.2016.BRRip.XviD.AC3-EVO http://glodls.to/torrent.php?id=2588728 http://glodls.to/torrent.php?id=2588728 Wed, 28 Jun 2017 00:27:30 +0100 Movies [color=red][b]
Their.Finest.2016.BRRip.XviD.AC3-EVO

[/b][/color]


IMDb: http://www.imdb.com/title/tt1661275/





[url=https://boltimg.com/image/t52z][img]https://boltimg.com/images/t52z.png[/img][/url]



[color=green][b]
General

(Duration): 1h 55mn
(FileSize): 1.34 GiB



Audio

(Format): AC-3 - Audio Coding 3
(Codec): AC3



Video

(Format): MPEG-4 Visual -
(Media): video/MP4V-ES
(Format): XviD
(Resolution): 720x304 px
(AspectRatio): 2.35:1
(FrameRate): 23.976 fps




[/b][/color]


[url=https://boltimg.com/image/tzTE][img]https://boltimg.com/images/tzTE.png[/img][/url]



[color=purple][b](Click to enlarge)[/b][/color]

[url=https://boltimg.com/image/W9S0w][img]https://boltimg.com/images/W9S0w.th.jpg[/img][/url] [url=https://boltimg.com/image/W9mxL][img]https://boltimg.com/images/W9mxL.th.jpg[/img][/url] [url=https://boltimg.com/image/W91wp][img]https://boltimg.com/images/W91wp.th.jpg[/img][/url] [url=https://boltimg.com/image/W97JC][img]https://boltimg.com/images/W97JC.th.jpg[/img][/url] [url=https://boltimg.com/image/W9RvG][img]https://boltimg.com/images/W9RvG.th.jpg[/img][/url] [url=https://boltimg.com/image/W9suF][img]https://boltimg.com/images/W9suF.th.jpg[/img][/url]

[/center]
]]>
Their.Finest.2016.BRRip.XviD.AC3-EVO http://glodls.to/torrent.php?id=2588727 http://glodls.to/torrent.php?id=2588727 Wed, 28 Jun 2017 00:24:40 +0100 Movies
[b]ImDb: [URL]http://www.imdb.com/title/tt2025690[/URL][/b]

[url=https://www.sparrowpics.com/image/LwB][img]https://www.sparrowpics.com/images/2015/12/10/Info.png[/img][/url]

[b]Complete name : Their.Finest.2016.BRRip.XviD.AC3-EVO.avi
Format : AVI
Format/Info : Audio Video Interleave
File size : 1.34 GiB
Duration : 1 h 55 min
Overall bit rate : 1 657 kb/s
Writing library : VirtualDub build 32593/release

Video
ID : 0
Format : MPEG-4 Visual
Format profile : Advanced Simple@L5
Format settings, BVOP : 2
Format settings, QPel : No
Format settings, GMC : No warppoints
Format settings, Matrix : Default (H.263)
Muxing mode : Packed bitstream
Codec ID : XVID
Codec ID/Hint : XviD
Duration : 1 h 55 min
Bit rate : 1 200 kb/s
Width : 720 pixels
Height : 304 pixels
Display aspect ratio : 2.35:1
Frame rate : 23.976 (24000/1001) FPS
Color space : YUV
Chroma subsampling : 4:2:0
Bit depth : 8 bits
Scan type : Progressive
Compression mode : Lossy
Bits/(Pixel*Frame) : 0.229
Stream size : 995 MiB (72%)
Writing library : XviD 66

Audio
ID : 1
Format : AC-3
Format/Info : Audio Coding 3
Format settings, Endianness : Big
Codec ID : 2000
Duration : 1 h 55 min
Bit rate mode : Constant
Bit rate : 448 kb/s
Channel(s) : 6 channels
Channel positions : Front: L C R, Side: L R, LFE
Sampling rate : 48.0 kHz
Frame rate : 31.250 FPS (1536 spf)
Bit depth : 16 bits
Compression mode : Lossy
Stream size : 372 MiB (27%)
Alignment : Aligned on interleaves
Interleave, duration : 42 ms (1.00 video frame)
Interleave, preload duration : 512 ms
Service kind : Complete Main[/b]

[url=https://www.sparrowpics.com/image/UYe][img]https://www.sparrowpics.com/images/2015/12/10/Screens.png[/img][/url]

[URL=https://www.sparrowpics.com/image/kRIQn][IMG]https://www.sparrowpics.com/images/2017/06/28/kRIQn.th.jpg[/IMG][/URL]
[URL=https://www.sparrowpics.com/image/kRRPy][b]Click To View Screenshot[/b][/URL]
[URL=https://www.sparrowpics.com/image/kRYOJ][b]Click To View Screenshot[/b][/URL]
[URL=https://www.sparrowpics.com/image/kRo7c][b]Click To View Screenshot[/b][/URL][/center] ]]>
Gladiator 2000 Extended Remastered Blu-ray 1080p-HighCode http://glodls.to/torrent.php?id=2588726 http://glodls.to/torrent.php?id=2588726 Wed, 28 Jun 2017 00:24:27 +0100 Movies
(Action, Adventure, Drama)


[img]http://i.imgbox.com/acdE08up.jpg[/img]



[url=http://www.imdb.com/title/tt0172495/]http://www.imdb.com/title/tt0172495/[/url]

When a Roman general is betrayed and his family murdered by an emperor's corrupt son,
he comes to Rome as a gladiator to seek revenge.

Source----------- US BD Extended & Remastered (Sapphire Edition)/AVC @25.4 MBps
Format----------- mkv/avc
File size---------- 15.1 GB
Length----------- 2:50:59
Video Bit rate ~10.9 MBps
Display AR----- 1920/816
Frame rate----- 23.976 fps
Audio------------ DTS 5.1 @1510 KBps
Subtitles-------- Eng & sdh, Chs & Cht, Fre, Ger, Hun, Ita, Kor, Rom, Rus, Spa
Encoder-------- HighCode


[url=http://www.imagebam.com/image/adc07c552273209][img]http://thumbnails102.imagebam.com/55228/adc07c552273209.jpg[/img][/url]

[url=http://www.imagebam.com/image/1c17f1272422162][img]http://thumbnails106.imagebam.com/27243/1c17f1272422162.jpg[/img][/url]

[url=http://www.imagebam.com/image/ad5494272422180][img]http://thumbnails104.imagebam.com/27243/ad5494272422180.jpg[/img][/url]

[url=http://www.imagebam.com/image/c06591272422209][img]http://thumbnails103.imagebam.com/27243/c06591272422209.jpg[/img][/url] ]]>
Glastonbury.2017.The.Sherlocks.Highlights.HDTV.x264-PLUTONiUM http://glodls.to/torrent.php?id=2588725 http://glodls.to/torrent.php?id=2588725 Wed, 28 Jun 2017 00:22:18 +0100 TV
[url=https://www.sparrowpics.com/image/LwB][img]https://www.sparrowpics.com/images/2015/12/10/Info.png[/img][/url]

[b]Complete name : glastonbury.2017.the.sherlocks.highlights.hdtv.x264-plutonium.mkv
Format : Matroska
Format version : Version 4 / Version 2
File size : 229 MiB
Duration : 24 min 42 s
Overall bit rate : 1 295 kb/s
Encoded date : UTC 2010-02-22 21:41:29
Writing application : no_variable_data
Writing library : no_variable_data

Video
ID : 1
Format : AVC
Format/Info : Advanced Video Codec
Format profile : High@L3.1
Format settings, CABAC : Yes
Format settings, ReFrames : 5 frames
Codec ID : V_MPEG4/ISO/AVC
Duration : 24 min 42 s
Width : 720 pixels
Height : 404 pixels
Display aspect ratio : 16:9
Frame rate mode : Constant
Frame rate : 50.000 FPS
Color space : YUV
Chroma subsampling : 4:2:0
Bit depth : 8 bits
Scan type : Progressive
Writing library : x264 core 150 r2833 df79067
Encoding settings : cabac=1 / ref=5 / deblock=1:0:0 / analyse=0x3:0x113 / me=hex / subme=8 / psy=1 / psy_rd=1.00:0.00 / mixed_ref=1 / me_range=16 / chroma_me=1 / trellis=2 / 8x8dct=1 / cqm=0 / deadzone=21,11 / fast_pskip=1 / chroma_qp_offset=-2 / threads=12 / lookahead_threads=2 / sliced_threads=0 / nr=0 / decimate=1 / interlaced=0 / bluray_compat=0 / constrained_intra=0 / bframes=3 / b_pyramid=2 / b_adapt=1 / b_bias=0 / direct=3 / weightb=1 / open_gop=0 / weightp=2 / keyint=250 / keyint_min=25 / scenecut=40 / intra_refresh=0 / rc_lookahead=50 / rc=crf / mbtree=1 / crf=24.0 / qcomp=0.60 / qpmin=0 / qpmax=69 / qpstep=4 / ip_ratio=1.40 / aq=1:1.00
Language : English
Default : Yes
Forced : No
Color range : Limited
Matrix coefficients : BT.709

Audio
ID : 2
Format : AAC
Format/Info : Advanced Audio Codec
Format profile : LC
Codec ID : A_AAC
Duration : 24 min 42 s
Channel(s) : 2 channels
Channel positions : Front: L R
Sampling rate : 48.0 kHz
Frame rate : 46.875 FPS (1024 spf)
Compression mode : Lossy
Language : English
Default : Yes
Forced : No[/b]

[url=https://www.sparrowpics.com/image/UYe][img]https://www.sparrowpics.com/images/2015/12/10/Screens.png[/img][/url]

[URL=https://tv.sparrowpics.com/image/W7lH][IMG]https://tv.sparrowpics.com/images/2017/06/27/W7lH.th.jpg[/IMG][/URL]
[URL=https://tv.sparrowpics.com/image/WQh0][b]Click To View Screenshot[/b][/URL]
[URL=https://tv.sparrowpics.com/image/Wrgy][b]Click To View Screenshot[/b][/URL]
[URL=https://tv.sparrowpics.com/image/Wtw3][b]Click To View Screenshot[/b][/URL][/center] ]]>
Glastonbury.2017.The.National.Highlights.HDTV.x264-PLUTONiUM http://glodls.to/torrent.php?id=2588724 http://glodls.to/torrent.php?id=2588724 Wed, 28 Jun 2017 00:18:17 +0100 TV
[url=https://www.sparrowpics.com/image/LwB][img]https://www.sparrowpics.com/images/2015/12/10/Info.png[/img][/url]

[b]Complete name : glastonbury.2017.the.national.highlights.hdtv.x264-plutonium.mkv
Format : Matroska
Format version : Version 4 / Version 2
File size : 304 MiB
Duration : 30 min 14 s
Overall bit rate : 1 405 kb/s
Encoded date : UTC 2010-02-22 21:41:29
Writing application : no_variable_data
Writing library : no_variable_data

Video
ID : 1
Format : AVC
Format/Info : Advanced Video Codec
Format profile : High@L3.1
Format settings, CABAC : Yes
Format settings, ReFrames : 5 frames
Codec ID : V_MPEG4/ISO/AVC
Duration : 30 min 14 s
Width : 720 pixels
Height : 404 pixels
Display aspect ratio : 16:9
Frame rate mode : Constant
Frame rate : 50.000 FPS
Color space : YUV
Chroma subsampling : 4:2:0
Bit depth : 8 bits
Scan type : Progressive
Writing library : x264 core 150 r2833 df79067
Encoding settings : cabac=1 / ref=5 / deblock=1:0:0 / analyse=0x3:0x113 / me=hex / subme=8 / psy=1 / psy_rd=1.00:0.00 / mixed_ref=1 / me_range=16 / chroma_me=1 / trellis=2 / 8x8dct=1 / cqm=0 / deadzone=21,11 / fast_pskip=1 / chroma_qp_offset=-2 / threads=12 / lookahead_threads=2 / sliced_threads=0 / nr=0 / decimate=1 / interlaced=0 / bluray_compat=0 / constrained_intra=0 / bframes=3 / b_pyramid=2 / b_adapt=1 / b_bias=0 / direct=3 / weightb=1 / open_gop=0 / weightp=2 / keyint=250 / keyint_min=25 / scenecut=40 / intra_refresh=0 / rc_lookahead=50 / rc=crf / mbtree=1 / crf=24.0 / qcomp=0.60 / qpmin=0 / qpmax=69 / qpstep=4 / ip_ratio=1.40 / aq=1:1.00
Language : English
Default : Yes
Forced : No
Color range : Limited
Matrix coefficients : BT.709

Audio
ID : 2
Format : AAC
Format/Info : Advanced Audio Codec
Format profile : LC
Codec ID : A_AAC
Duration : 30 min 14 s
Channel(s) : 2 channels
Channel positions : Front: L R
Sampling rate : 48.0 kHz
Frame rate : 46.875 FPS (1024 spf)
Compression mode : Lossy
Language : English
Default : Yes
Forced : No[/b]

[url=https://www.sparrowpics.com/image/UYe][img]https://www.sparrowpics.com/images/2015/12/10/Screens.png[/img][/url]

[URL=https://tv.sparrowpics.com/image/W4J2][IMG]https://tv.sparrowpics.com/images/2017/06/27/W4J2.th.jpg[/IMG][/URL]
[URL=https://tv.sparrowpics.com/image/WDPg][b]Click To View Screenshot[/b][/URL]
[URL=https://tv.sparrowpics.com/image/WFj5][b]Click To View Screenshot[/b][/URL]
[URL=https://tv.sparrowpics.com/image/WYYw][b]Click To View Screenshot[/b][/URL][/center] ]]>
Glastonbury.2017.The.Amazons.Highlights.HDTV.x264-PLUTONiUM http://glodls.to/torrent.php?id=2588723 http://glodls.to/torrent.php?id=2588723 Wed, 28 Jun 2017 00:13:14 +0100 TV
[url=https://www.sparrowpics.com/image/LwB][img]https://www.sparrowpics.com/images/2015/12/10/Info.png[/img][/url]

[b]Complete name : glastonbury.2017.the.amazons.highlights.hdtv.x264-plutonium.mkv
Format : Matroska
Format version : Version 4 / Version 2
File size : 161 MiB
Duration : 20 min 4 s
Overall bit rate : 1 121 kb/s
Encoded date : UTC 2010-02-22 21:41:29
Writing application : no_variable_data
Writing library : no_variable_data

Video
ID : 1
Format : AVC
Format/Info : Advanced Video Codec
Format profile : High@L3.1
Format settings, CABAC : Yes
Format settings, ReFrames : 5 frames
Codec ID : V_MPEG4/ISO/AVC
Duration : 20 min 4 s
Width : 720 pixels
Height : 404 pixels
Display aspect ratio : 16:9
Frame rate mode : Constant
Frame rate : 50.000 FPS
Color space : YUV
Chroma subsampling : 4:2:0
Bit depth : 8 bits
Scan type : Progressive
Writing library : x264 core 150 r2833 df79067
Encoding settings : cabac=1 / ref=5 / deblock=1:0:0 / analyse=0x3:0x113 / me=hex / subme=8 / psy=1 / psy_rd=1.00:0.00 / mixed_ref=1 / me_range=16 / chroma_me=1 / trellis=2 / 8x8dct=1 / cqm=0 / deadzone=21,11 / fast_pskip=1 / chroma_qp_offset=-2 / threads=12 / lookahead_threads=2 / sliced_threads=0 / nr=0 / decimate=1 / interlaced=0 / bluray_compat=0 / constrained_intra=0 / bframes=3 / b_pyramid=2 / b_adapt=1 / b_bias=0 / direct=3 / weightb=1 / open_gop=0 / weightp=2 / keyint=250 / keyint_min=25 / scenecut=40 / intra_refresh=0 / rc_lookahead=50 / rc=crf / mbtree=1 / crf=24.0 / qcomp=0.60 / qpmin=0 / qpmax=69 / qpstep=4 / ip_ratio=1.40 / aq=1:1.00
Language : English
Default : Yes
Forced : No
Color range : Limited
Matrix coefficients : BT.709

Audio
ID : 2
Format : AAC
Format/Info : Advanced Audio Codec
Format profile : LC
Codec ID : A_AAC
Duration : 20 min 4 s
Channel(s) : 2 channels
Channel positions : Front: L R
Sampling rate : 48.0 kHz
Frame rate : 46.875 FPS (1024 spf)
Compression mode : Lossy
Language : English
Default : Yes
Forced : No[/b]

[url=https://www.sparrowpics.com/image/UYe][img]https://www.sparrowpics.com/images/2015/12/10/Screens.png[/img][/url]

[URL=https://tv.sparrowpics.com/image/WIai][IMG]https://tv.sparrowpics.com/images/2017/06/27/WIai.th.jpg[/IMG][/URL]
[URL=https://tv.sparrowpics.com/image/WKwm][b]Click To View Screenshot[/b][/URL]
[URL=https://tv.sparrowpics.com/image/WaWF][b]Click To View Screenshot[/b][/URL]
[URL=https://tv.sparrowpics.com/image/WgxA][b]Click To View Screenshot[/b][/URL][/center] ]]>
Loving Interracial Intimacy In America And The Threat To White Supremacy/Sheryll Cashin/2017/EPUB/Shunster http://glodls.to/torrent.php?id=2588722 http://glodls.to/torrent.php?id=2588722 Wed, 28 Jun 2017 00:00:54 +0100 Books [/b]
English|Non-Fiction|ASIN: B01LWDZA7H|250pg|414KB

How interracial love and marriage changed history, and may soon alter the landscape of American politics.

Loving beyond boundaries is a radical act that is changing America. When Mildred and Richard Loving wed in 1958, they were ripped from their shared bed and taken to court.

Their crime: miscegenation, punished by exile from their home state of Virginia. The resulting landmark decision of Loving v. Virginia ended bans on interracial marriage and remains a signature case—the first to use the words “white supremacy” to describe such racism.

Drawing from the earliest chapters in US history, legal scholar Sheryll Cashin reveals the enduring legacy of America’s original sin, tracing how we transformed from a country without an entrenched construction of race to a nation where one drop of nonwhite blood merited exclusion from full citizenship.

In vivid detail, she illustrates how the idea of whiteness was created by the planter class of yesterday and is reinforced by today’s power-hungry dog-whistlers to divide struggling whites and people of color, ensuring plutocracy and undermining the common good.

Cashin argues that over the course of the last four centuries there have been “ardent integrators” and that those people are today contributing to the emergence of a class of “culturally dexterous” Americans.

In the fifty years since the Lovings won their case, approval for interracial marriage rose from 4 percent to 87 percent.

Cashin speculates that rising rates of interracial intimacy—including cross-racial adoption, romance, and friendship—combined with immigration, demographic, and generational change, will create an ascendant coalition of culturally dexterous whites and people of color.

Loving is both a history of white supremacy and a hopeful treatise on the future of race relations in America, challenging the notion that trickle-down progressive politics is our only hope for a more inclusive society.

Accessible and sharp, Cashin reanimates the possibility of a future where interracial understanding serves as a catalyst of a social revolution ending not in artificial color blindness but in a culture where acceptance and difference are celebrated. ]]>
The.Tomb.of.Ligeia.(1964).DvdRip.Divx5 http://glodls.to/torrent.php?id=2588721 http://glodls.to/torrent.php?id=2588721 Tue, 27 Jun 2017 23:52:52 +0100 Movies [color=red][b]
The.Tomb.of.Ligeia.(1964).DvdRip.Divx5

[/b][/color]


IMDb: http://www.imdb.com/title/tt0059821/





[url=https://boltimg.com/image/t52z][img]https://boltimg.com/images/t52z.png[/img][/url]



[color=green][b]
General

(Duration): 1h 21mn
(FileSize): 699 MiB



Audio

(Format): MPEG Audio -
(Codec): MPA1L3



Video

(Format): MPEG-4 Visual -
(Media): video/MP4V-ES
(Format): DivX
(Resolution): 640x272 px
(AspectRatio): 2.35:1
(FrameRate): 23.976 fps




[/b][/color]


[url=https://boltimg.com/image/tzTE][img]https://boltimg.com/images/tzTE.png[/img][/url]



[color=purple][b](Click to enlarge)[/b][/color]

[url=https://boltimg.com/image/W9Pvm][img]https://boltimg.com/images/W9Pvm.th.jpg[/img][/url] [url=https://boltimg.com/image/W9wuI][img]https://boltimg.com/images/W9wuI.th.jpg[/img][/url] [url=https://boltimg.com/image/W94n5][img]https://boltimg.com/images/W94n5.th.jpg[/img][/url] [url=https://boltimg.com/image/W9MqW][img]https://boltimg.com/images/W9MqW.th.jpg[/img][/url] [url=https://boltimg.com/image/W9Wfx][img]https://boltimg.com/images/W9Wfx.th.jpg[/img][/url] [url=https://boltimg.com/image/W9ySX][img]https://boltimg.com/images/W9ySX.th.jpg[/img][/url]

[/center]
]]>
The Tomb of Ligeia 1964 DvdRip Divx5.The Tomb of Ligeia (1964) DvdRip Divx5 http://glodls.to/torrent.php?id=2588720 http://glodls.to/torrent.php?id=2588720 Tue, 27 Jun 2017 23:52:19 +0100 Movies
[b]ImDb: [URL]http://www.imdb.com/title/tt1447410[/URL][/b]

[url=https://www.sparrowpics.com/image/LwB][img]https://www.sparrowpics.com/images/2015/12/10/Info.png[/img][/url]

[b]Complete name : The Tomb of Ligeia (1964) DvdRip Divx5.avi
Format : AVI
Format/Info : Audio Video Interleave
File size : 699 MiB
Duration : 1 h 21 min
Overall bit rate mode : Variable
Overall bit rate : 1 195 kb/s
Writing application : VirtualDubMod 1.5.10.1 (build 2439/release)
Writing library : VirtualDubMod build 2439/release

Video
ID : 0
Format : MPEG-4 Visual
Format settings, BVOP : 1
Format settings, QPel : No
Format settings, GMC : No warppoints
Format settings, Matrix : Default (H.263)
Muxing mode : Packed bitstream
Codec ID : DX50
Codec ID/Hint : DivX 5
Duration : 1 h 21 min
Bit rate : 1 067 kb/s
Nominal bit rate : 4 000 kb/s
Width : 640 pixels
Height : 272 pixels
Display aspect ratio : 2.35:1
Frame rate : 23.976 (24000/1001) FPS
Color space : YUV
Chroma subsampling : 4:2:0
Bit depth : 8 bits
Scan type : Progressive
Compression mode : Lossy
Bits/(Pixel*Frame) : 0.256
Stream size : 624 MiB (89%)
Writing library : DivX 5.0.5 (UTC 2003-04-24)

Audio
ID : 1
Format : MPEG Audio
Format version : Version 1
Format profile : Layer 3
Mode : Joint stereo
Mode extension : MS Stereo
Codec ID : 55
Codec ID/Hint : MP3
Duration : 1 h 21 min
Bit rate mode : Variable
Bit rate : 115 kb/s
Nominal bit rate : 128 kb/s
Channel(s) : 2 channels
Sampling rate : 48.0 kHz
Compression mode : Lossy
Stream size : 67.2 MiB (10%)
Alignment : Aligned on interleaves
Interleave, duration : 24 ms (0.58 video frame)
Interleave, preload duration : 160 ms
Writing library : LAME3.90.
Encoding settings : -m j -V 4 -q 2 -lowpass 17.6 --abr 128[/b]

[url=https://www.sparrowpics.com/image/UYe][img]https://www.sparrowpics.com/images/2015/12/10/Screens.png[/img][/url]

[URL=https://www.sparrowpics.com/image/kRMGP][IMG]https://www.sparrowpics.com/images/2017/06/28/kRMGP.th.jpg[/IMG][/URL]
[URL=https://www.sparrowpics.com/image/kRUCm][b]Click To View Screenshot[/b][/URL]
[URL=https://www.sparrowpics.com/image/kRgZr][b]Click To View Screenshot[/b][/URL]
[URL=https://www.sparrowpics.com/image/kR3SW][b]Click To View Screenshot[/b][/URL][/center] ]]>
Glastonbury.2017.Stormzy.Highlights.HDTV.x264-PLUTONiUM http://glodls.to/torrent.php?id=2588719 http://glodls.to/torrent.php?id=2588719 Tue, 27 Jun 2017 23:35:15 +0100 TV
[url=https://www.sparrowpics.com/image/LwB][img]https://www.sparrowpics.com/images/2015/12/10/Info.png[/img][/url]

[b]Complete name : glastonbury.2017.stormzy.highlights.hdtv.x264-plutonium.mkv
Format : Matroska
Format version : Version 4 / Version 2
File size : 377 MiB
Duration : 25 min 10 s
Overall bit rate : 2 092 kb/s
Encoded date : UTC 2010-02-22 21:41:29
Writing application : no_variable_data
Writing library : no_variable_data

Video
ID : 1
Format : AVC
Format/Info : Advanced Video Codec
Format profile : High@L3.1
Format settings, CABAC : Yes
Format settings, ReFrames : 5 frames
Codec ID : V_MPEG4/ISO/AVC
Duration : 25 min 10 s
Width : 720 pixels
Height : 404 pixels
Display aspect ratio : 16:9
Frame rate mode : Constant
Frame rate : 50.000 FPS
Color space : YUV
Chroma subsampling : 4:2:0
Bit depth : 8 bits
Scan type : Progressive
Writing library : x264 core 150 r2833 df79067
Encoding settings : cabac=1 / ref=5 / deblock=1:0:0 / analyse=0x3:0x113 / me=hex / subme=8 / psy=1 / psy_rd=1.00:0.00 / mixed_ref=1 / me_range=16 / chroma_me=1 / trellis=2 / 8x8dct=1 / cqm=0 / deadzone=21,11 / fast_pskip=1 / chroma_qp_offset=-2 / threads=12 / lookahead_threads=2 / sliced_threads=0 / nr=0 / decimate=1 / interlaced=0 / bluray_compat=0 / constrained_intra=0 / bframes=3 / b_pyramid=2 / b_adapt=1 / b_bias=0 / direct=3 / weightb=1 / open_gop=0 / weightp=2 / keyint=250 / keyint_min=25 / scenecut=40 / intra_refresh=0 / rc_lookahead=50 / rc=crf / mbtree=1 / crf=24.0 / qcomp=0.60 / qpmin=0 / qpmax=69 / qpstep=4 / ip_ratio=1.40 / aq=1:1.00
Language : English
Default : Yes
Forced : No
Color range : Limited
Matrix coefficients : BT.709

Audio
ID : 2
Format : AAC
Format/Info : Advanced Audio Codec
Format profile : LC
Codec ID : A_AAC
Duration : 25 min 10 s
Channel(s) : 2 channels
Channel positions : Front: L R
Sampling rate : 48.0 kHz
Frame rate : 46.875 FPS (1024 spf)
Compression mode : Lossy
Language : English
Default : Yes
Forced : No[/b]

[url=https://www.sparrowpics.com/image/UYe][img]https://www.sparrowpics.com/images/2015/12/10/Screens.png[/img][/url]

[URL=https://tv.sparrowpics.com/image/0MjJ][IMG]https://tv.sparrowpics.com/images/2017/06/27/0MjJ.th.jpg[/IMG][/URL]
[URL=https://tv.sparrowpics.com/image/0xNG][b]Click To View Screenshot[/b][/URL]
[URL=https://tv.sparrowpics.com/image/W8bc][b]Click To View Screenshot[/b][/URL]
[URL=https://tv.sparrowpics.com/image/W9hQ][b]Click To View Screenshot[/b][/URL][/center] ]]>
Before I Hang 1940 DVDRip XViD. http://glodls.to/torrent.php?id=2588718 http://glodls.to/torrent.php?id=2588718 Tue, 27 Jun 2017 23:34:23 +0100 Movies
[b]ImDb: [URL]http://www.imdb.com/title/tt0032245[/URL][/b]

[url=https://www.sparrowpics.com/image/LwB][img]https://www.sparrowpics.com/images/2015/12/10/Info.png[/img][/url]

[b]Complete name : Before I Hang 1940 DVDRip XViD.avi
Format : AVI
Format/Info : Audio Video Interleave
File size : 698 MiB
Duration : 1 h 2 min
Overall bit rate mode : Variable
Overall bit rate : 1 571 kb/s
Writing application : Nandub v1.0rc2
Writing library : Nandub build 1853/release

Video
ID : 0
Format : MPEG-4 Visual
Format profile : Advanced Simple@L5
Format settings, BVOP : 2
Format settings, QPel : No
Format settings, GMC : No warppoints
Format settings, Matrix : Default (H.263)
Codec ID : XVID
Codec ID/Hint : XviD
Duration : 1 h 2 min
Bit rate : 1 490 kb/s
Width : 576 pixels
Height : 432 pixels
Display aspect ratio : 4:3
Frame rate : 23.976 (24000/1001) FPS
Color space : YUV
Chroma subsampling : 4:2:0
Bit depth : 8 bits
Scan type : Progressive
Compression mode : Lossy
Bits/(Pixel*Frame) : 0.250
Stream size : 662 MiB (95%)
Writing library : XviD 1.1.0 Beta2 (UTC 2005-04-04)

Audio
ID : 1
Format : MPEG Audio
Format version : Version 1
Format profile : Layer 3
Codec ID : 55
Codec ID/Hint : MP3
Duration : 1 h 2 min
Bit rate mode : Variable
Bit rate : 67.6 kb/s
Minimum bit rate : 48.0 kb/s
Channel(s) : 1 channel
Sampling rate : 48.0 kHz
Compression mode : Lossy
Stream size : 30.0 MiB (4%)
Alignment : Aligned on interleaves
Interleave, duration : 24 ms (0.58 video frame)
Interleave, preload duration : 261 ms
Writing library : LAME3.95
Encoding settings : -m m -V 4 -q 2 -lowpass 18 --vbr-old -b 48[/b]

[url=https://www.sparrowpics.com/image/UYe][img]https://www.sparrowpics.com/images/2015/12/10/Screens.png[/img][/url]

[URL=https://www.sparrowpics.com/image/kPqre][IMG]https://www.sparrowpics.com/images/2017/06/28/kPqre.th.jpg[/IMG][/URL]
[URL=https://www.sparrowpics.com/image/kR17s][b]Click To View Screenshot[/b][/URL]
[URL=https://www.sparrowpics.com/image/kRJLf][b]Click To View Screenshot[/b][/URL]
[URL=https://www.sparrowpics.com/image/kRLd5][b]Click To View Screenshot[/b][/URL][/center] ]]>
Before.I.Hang.1940.DVDRip.XViD http://glodls.to/torrent.php?id=2588717 http://glodls.to/torrent.php?id=2588717 Tue, 27 Jun 2017 23:33:40 +0100 Movies [color=red][b]
Before.I.Hang.1940.DVDRip.XViD

[/b][/color]


IMDb: http://www.imdb.com/title/tt0032245/





[url=https://boltimg.com/image/t52z][img]https://boltimg.com/images/t52z.png[/img][/url]



[color=green][b]
General

(Duration): 1h 2mn
(FileSize): 698 MiB



Audio

(Format): MPEG Audio -
(Codec): MPA1L3



Video

(Format): MPEG-4 Visual -
(Media): video/MP4V-ES
(Format): XviD
(Resolution): 576x432 px
(AspectRatio): 4:3
(FrameRate): 23.976 fps




[/b][/color]


[url=https://boltimg.com/image/tzTE][img]https://boltimg.com/images/tzTE.png[/img][/url]



[color=purple][b](Click to enlarge)[/b][/color]

[url=https://boltimg.com/image/W9aYc][img]https://boltimg.com/images/W9aYc.th.jpg[/img][/url] [url=https://boltimg.com/image/W9bSu][img]https://boltimg.com/images/W9bSu.th.jpg[/img][/url] [url=https://boltimg.com/image/W9oz3][img]https://boltimg.com/images/W9oz3.th.jpg[/img][/url] [url=https://boltimg.com/image/W9Brn][img]https://boltimg.com/images/W9Brn.th.jpg[/img][/url] [url=https://boltimg.com/image/W9CwA][img]https://boltimg.com/images/W9CwA.th.jpg[/img][/url] [url=https://boltimg.com/image/W9Kpk][img]https://boltimg.com/images/W9Kpk.th.jpg[/img][/url]

[/center]
]]>
Attack.of.the.Puppet.People.1958.DVDRip.DivX.5 http://glodls.to/torrent.php?id=2588716 http://glodls.to/torrent.php?id=2588716 Tue, 27 Jun 2017 23:17:18 +0100 Movies [color=red][b]
Attack.of.the.Puppet.People.1958.DVDRip.DivX.5

[/b][/color]


IMDb: http://www.imdb.com/title/tt0051381/





[url=https://boltimg.com/image/t52z][img]https://boltimg.com/images/t52z.png[/img][/url]



[color=green][b]
General

(Duration): 1h 19mn
(FileSize): 700 MiB



Audio

(Format): MPEG Audio -
(Codec): MPA1L3



Video

(Format): MPEG-4 Visual -
(Media): video/MP4V-ES
(Format): DivX
(Resolution): 512x368 px
(AspectRatio): 1.391
(FrameRate): 29.970 fps




[/b][/color]


[url=https://boltimg.com/image/tzTE][img]https://boltimg.com/images/tzTE.png[/img][/url]



[color=purple][b](Click to enlarge)[/b][/color]

[url=https://boltimg.com/image/W9xrE][img]https://boltimg.com/images/W9xrE.th.jpg[/img][/url] [url=https://boltimg.com/image/W96gz][img]https://boltimg.com/images/W96gz.th.jpg[/img][/url] [url=https://boltimg.com/image/W9EpM][img]https://boltimg.com/images/W9EpM.th.jpg[/img][/url] [url=https://boltimg.com/image/W9HvZ][img]https://boltimg.com/images/W9HvZ.th.jpg[/img][/url] [url=https://boltimg.com/image/W9Yol][img]https://boltimg.com/images/W9Yol.th.jpg[/img][/url] [url=https://boltimg.com/image/W9fnP][img]https://boltimg.com/images/W9fnP.th.jpg[/img][/url]

[/center]
]]>
Attack of the Puppet People 1958 DVDRip DivX 5. http://glodls.to/torrent.php?id=2588715 http://glodls.to/torrent.php?id=2588715 Tue, 27 Jun 2017 23:16:21 +0100 Movies
[b]ImDb: [URL]http://www.imdb.com/title/tt0051381[/URL][/b]

[url=https://www.sparrowpics.com/image/LwB][img]https://www.sparrowpics.com/images/2015/12/10/Info.png[/img][/url]

[b]Complete name : Attack of the Puppet People 1958 DVDRip DivX 5.avi
Format : AVI
Format/Info : Audio Video Interleave
File size : 700 MiB
Duration : 1 h 19 min
Overall bit rate mode : Variable
Overall bit rate : 1 233 kb/s
Writing application : VirtualDubMod 1.5.4.1 (build 2178/release)
Writing library : VirtualDubMod build 2178/release

Video
ID : 0
Format : MPEG-4 Visual
Format settings, BVOP : 1
Format settings, QPel : No
Format settings, GMC : No warppoints
Format settings, Matrix : Default (H.263)
Muxing mode : Packed bitstream
Codec ID : DX50
Codec ID/Hint : DivX 5
Duration : 1 h 19 min
Bit rate : 1 121 kb/s
Nominal bit rate : 6 951 kb/s
Width : 512 pixels
Height : 368 pixels
Display aspect ratio : 1.391
Frame rate : 29.970 (30000/1001) FPS
Color space : YUV
Chroma subsampling : 4:2:0
Bit depth : 8 bits
Scan type : Progressive
Compression mode : Lossy
Bits/(Pixel*Frame) : 0.199
Stream size : 636 MiB (91%)
Writing library : DivX 5.1.0 (UTC 2003-09-02)

Audio
ID : 1
Format : MPEG Audio
Format version : Version 1
Format profile : Layer 3
Mode : Joint stereo
Codec ID : 55
Codec ID/Hint : MP3
Duration : 1 h 19 min
Bit rate mode : Variable
Bit rate : 97.9 kb/s
Nominal bit rate : 128 kb/s
Channel(s) : 2 channels
Sampling rate : 48.0 kHz
Compression mode : Lossy
Stream size : 55.6 MiB (8%)
Alignment : Aligned on interleaves
Interleave, duration : 24 ms (0.72 video frame)
Interleave, preload duration : 188 ms
Writing library : LAME3.90.
Encoding settings : -m j -V 0 -q 5 -lowpass 15.3 --abr 128[/b]

[url=https://www.sparrowpics.com/image/UYe][img]https://www.sparrowpics.com/images/2015/12/10/Screens.png[/img][/url]

[URL=https://www.sparrowpics.com/image/kPxZ1][IMG]https://www.sparrowpics.com/images/2017/06/28/kPxZ1.th.jpg[/IMG][/URL]
[URL=https://www.sparrowpics.com/image/kP2NH][b]Click To View Screenshot[/b][/URL]
[URL=https://www.sparrowpics.com/image/kPBQT][b]Click To View Screenshot[/b][/URL]
[URL=https://www.sparrowpics.com/image/kPhIB][b]Click To View Screenshot[/b][/URL][/center] ]]>
My.Wife.Caught.Me.Assfucking.Her.Mother.11.iNTERNAL.XXX.720p.WEBRiP.MP4-GUSH[N1C] http://glodls.to/torrent.php?id=2588708 http://glodls.to/torrent.php?id=2588708 Tue, 27 Jun 2017 23:09:13 +0100 Adult XXX My.Wife.Caught.Me.Assfucking.Her.Mother.11.iNTERNAL.XXX.720p.WEBRiP.MP4-GUSH


[Format]: MPEG-4
[Duration]: 1h 57mn
[Resolution]: 1 280 x 720 pixels
[Display aspect ratio]: 16:9
[Frame rate mode]: Variable
[Frame rate]: 29.970 fps
[Minimum frame rate]: 11.928 fps
[Maximum frame rate]: 29.970 fps


[color=green][b]#N1C -> To avoid fakes, ALWAYS check that the torrent was added by NO1CARES[/b][/color]




[color=green][b]Help us by donating with Bitcoin: 1Pgwp16gmLHmPzgjJLxZnMw7YeqiUekUoe[/b][/color]

[b]Screens...[/b]
[url]http://HotImage.uk/img-5952e57770bf5.html[/url]
[url]http://HotImage.uk/img-5952e577a741c.html[/url]
[url]http://HotImage.uk/img-5952e577acebe.html[/url]
[url]http://HotImage.uk/img-5952e577b24a9.html[/url] ]]>
Lone.Star.Law.S02E05.720p.HDTV.x264-DOCERE http://glodls.to/torrent.php?id=2588707 http://glodls.to/torrent.php?id=2588707 Tue, 27 Jun 2017 22:59:39 +0100 TV
[url=https://www.sparrowpics.com/image/LwB][img]https://www.sparrowpics.com/images/2015/12/10/Info.png[/img][/url]

[b]Complete name : lone.star.law.s02e05.720p.hdtv-docere.mkv
Format : Matroska
Format version : Version 4 / Version 2
File size : 1.51 GiB
Duration : 51 min 57 s
Overall bit rate : 4 169 kb/s
Encoded date : UTC 2017-06-27 22:32:58
Writing application : mkvmerge v9.2.0 ('Photograph') 64bit
Writing library : libebml v1.3.3 + libmatroska v1.4.4

Video
ID : 1
Format : AVC
Format/Info : Advanced Video Codec
Format profile : High@L4.1
Format settings, CABAC : Yes
Format settings, ReFrames : 5 frames
Codec ID : V_MPEG4/ISO/AVC
Duration : 51 min 57 s
Bit rate : 3 781 kb/s
Width : 1 280 pixels
Height : 720 pixels
Display aspect ratio : 16:9
Frame rate mode : Constant
Frame rate : 50.000 FPS
Color space : YUV
Chroma subsampling : 4:2:0
Bit depth : 8 bits
Scan type : Progressive
Bits/(Pixel*Frame) : 0.082
Stream size : 1.37 GiB (91%)
Writing library : x264 core 148 r2762 90a61ec
Encoding settings : cabac=1 / ref=5 / deblock=1:0:0 / analyse=0x3:0x113 / me=hex / subme=8 / psy=1 / psy_rd=1.00:0.00 / mixed_ref=1 / me_range=16 / chroma_me=1 / trellis=2 / 8x8dct=1 / cqm=0 / deadzone=21,11 / fast_pskip=1 / chroma_qp_offset=-2 / threads=6 / lookahead_threads=1 / sliced_threads=0 / nr=0 / decimate=1 / interlaced=0 / bluray_compat=0 / stitchable=1 / constrained_intra=0 / bframes=3 / b_pyramid=2 / b_adapt=1 / b_bias=0 / direct=3 / weightb=1 / open_gop=0 / weightp=2 / keyint=250 / keyint_min=25 / scenecut=40 / intra_refresh=0 / rc_lookahead=50 / rc=crf / mbtree=1 / crf=21.0 / qcomp=0.60 / qpmin=0 / qpmax=69 / qpstep=4 / ip_ratio=1.40 / aq=1:1.00
Default : Yes
Forced : No
Color range : Limited
Color primaries : BT.709
Transfer characteristics : BT.709
Matrix coefficients : BT.709

Audio
ID : 2
Format : AC-3
Format/Info : Audio Coding 3
Format settings, Endianness : Big
Codec ID : A_AC3
Duration : 51 min 57 s
Bit rate mode : Constant
Bit rate : 384 kb/s
Channel(s) : 6 channels
Channel positions : Front: L C R, Side: L R, LFE
Sampling rate : 48.0 kHz
Frame rate : 31.250 FPS (1536 spf)
Bit depth : 16 bits
Compression mode : Lossy
Stream size : 143 MiB (9%)
Service kind : Complete Main
Default : Yes
Forced : No[/b]

[url=https://www.sparrowpics.com/image/UYe][img]https://www.sparrowpics.com/images/2015/12/10/Screens.png[/img][/url]

[URL=https://tv.sparrowpics.com/image/0i0X][IMG]https://tv.sparrowpics.com/images/2017/06/27/0i0X.th.jpg[/IMG][/URL]
[URL=https://tv.sparrowpics.com/image/0jxU][b]Click To View Screenshot[/b][/URL]
[URL=https://tv.sparrowpics.com/image/0uJ8][b]Click To View Screenshot[/b][/URL]
[URL=https://tv.sparrowpics.com/image/0GcO][b]Click To View Screenshot[/b][/URL][/center] ]]>
The Secret Nature of Matter/ Richard Gordon/2017/EPUB/Shunster http://glodls.to/torrent.php?id=2588706 http://glodls.to/torrent.php?id=2588706 Tue, 27 Jun 2017 22:58:00 +0100 Books
English|Non-Fiction|ASIN: B01LWDZMB9|241pg|.33MB

Richard Gordon maps out new territory in the rarely explored intersection of science and spirituality in this facscinating investigation of the profound relationship between matter and consciousness.

Building on the Quantum-Touch technique he developed in previous books, Gordon explains how the hands-on energy healing technique that he uses to help to alleviate nerve pain, headaches, back pain, hip pain, TMJ, and more provides a unique window onto the secret nature of matter.

He explains how, by examining pelvic and occipital torsion, and then aligning people without the use of touch or suggestion, he is able to run a wide range of simple experiments that challenge many dogmas of science.

This book teaches readers the technique along with 57 easy-to-reproduce experiments that allow them to test the results. These experiments clearly demonstrate that our consciousness can profoundly influence matter, and that an object charged with energy and intent can dramatically affect us physiologically in seconds.
]]>
R.H.I.N.O.Really.Here.in.Name.Only.1983.BDRip.x264-FUTURiSTiC http://glodls.to/torrent.php?id=2588705 http://glodls.to/torrent.php?id=2588705 Tue, 27 Jun 2017 22:48:16 +0100 Movies [color=red][b]
R.H.I.N.O.Really.Here.in.Name.Only.1983.BDRip.x264-FUTURiSTiC

[/b][/color]


IMDb: http://www.imdb.com/title/tt0232497/





[url=https://boltimg.com/image/t52z][img]https://boltimg.com/images/t52z.png[/img][/url]



[color=green][b]
General

(Duration): 1h 17mn
(FileSize): 803 MiB



Audio

(Format): AAC - Advanced Audio Codec
(Codec): AAC LC



Video

(Format): AVC - Advanced Video Codec
(Media): video/H264
(Format): x264
(Resolution): 720x540 px
(AspectRatio): 4:3
(FrameRate): 24.000 fps




[/b][/color]


[url=https://boltimg.com/image/tzTE][img]https://boltimg.com/images/tzTE.png[/img][/url]



[color=purple][b](Click to enlarge)[/b][/color]

[url=https://boltimg.com/image/W3Gob][img]https://boltimg.com/images/W3Gob.th.jpg[/img][/url] [url=https://boltimg.com/image/W3vRN][img]https://boltimg.com/images/W3vRN.th.jpg[/img][/url] [url=https://boltimg.com/image/W3ek7][img]https://boltimg.com/images/W3ek7.th.jpg[/img][/url] [url=https://boltimg.com/image/W9LYf][img]https://boltimg.com/images/W9LYf.th.jpg[/img][/url] [url=https://boltimg.com/image/W9UyO][img]https://boltimg.com/images/W9UyO.th.jpg[/img][/url] [url=https://boltimg.com/image/W9ZzS][img]https://boltimg.com/images/W9ZzS.th.jpg[/img][/url]

[/center]
]]>
R.H.I.N.O.Really.Here.in.Name.Only.1983.BDRip.x264-FUTURiSTiC http://glodls.to/torrent.php?id=2588704 http://glodls.to/torrent.php?id=2588704 Tue, 27 Jun 2017 22:47:27 +0100 Movies
[b]ImDb: [URL]http://www.imdb.com/title/tt0232497[/URL][/b]

[url=https://www.sparrowpics.com/image/LwB][img]https://www.sparrowpics.com/images/2015/12/10/Info.png[/img][/url]

[b]Complete name : R.H.I.N.O.Really.Here.in.Name.Only.1983.BDRip.x264-FUTURiSTiC.mkv
Format : Matroska
Format version : Version 4 / Version 2
File size : 803 MiB
Duration : 1 h 17 min
Overall bit rate : 1 446 kb/s
Encoded date : UTC 2017-06-27 03:42:31
Writing application : mkvmerge v13.0.0 ('The Juggler') 64bit
Writing library : libebml v1.3.4 + libmatroska v1.4.5

Video
ID : 1
Format : AVC
Format/Info : Advanced Video Codec
Format profile : High@L3.1
Format settings, CABAC : Yes
Format settings, ReFrames : 11 frames
Codec ID : V_MPEG4/ISO/AVC
Duration : 1 h 17 min
Bit rate : 1 362 kb/s
Width : 720 pixels
Height : 540 pixels
Display aspect ratio : 4:3
Frame rate mode : Constant
Frame rate : 24.000 FPS
Color space : YUV
Chroma subsampling : 4:2:0
Bit depth : 8 bits
Scan type : Progressive
Bits/(Pixel*Frame) : 0.146
Stream size : 757 MiB (94%)
Writing library : x264 core 150 r2833 df79067
Encoding settings : cabac=1 / ref=11 / deblock=1:-3:-3 / analyse=0x3:0x133 / me=umh / subme=10 / psy=1 / psy_rd=1.00:0.25 / mixed_ref=1 / me_range=24 / chroma_me=1 / trellis=2 / 8x8dct=1 / cqm=0 / deadzone=21,11 / fast_pskip=1 / chroma_qp_offset=-4 / threads=17 / lookahead_threads=2 / sliced_threads=0 / nr=0 / decimate=1 / interlaced=0 / bluray_compat=0 / constrained_intra=0 / bframes=8 / b_pyramid=2 / b_adapt=2 / b_bias=0 / direct=3 / weightb=1 / open_gop=0 / weightp=2 / keyint=240 / keyint_min=24 / scenecut=40 / intra_refresh=0 / rc_lookahead=60 / rc=crf / mbtree=1 / crf=21.0 / qcomp=0.60 / qpmin=0 / qpmax=69 / qpstep=4 / ip_ratio=1.40 / aq=1:0.75
Default : Yes
Forced : No
Color range : Limited
Matrix coefficients : BT.709

Audio
ID : 2
Format : AAC
Format/Info : Advanced Audio Codec
Format profile : LC
Codec ID : A_AAC
Duration : 1 h 17 min
Bit rate : 81.0 kb/s
Channel(s) : 1 channel
Channel positions : Front: C
Sampling rate : 48.0 kHz
Frame rate : 46.875 FPS (1024 spf)
Compression mode : Lossy
Delay relative to video : 9 ms
Stream size : 45.0 MiB (6%)
Language : English
Default : Yes
Forced : No

Menu
00:00:00.000 : en:00:00:00.000
00:09:54.542 : en:00:09:54.542
00:16:29.833 : en:00:16:29.833
00:29:24.708 : en:00:29:24.708
00:42:59.000 : en:00:42:59.000
00:47:42.000 : en:00:47:42.000
00:53:16.000 : en:00:53:16.000
00:57:27.625 : en:00:57:27.625
01:02:28.250 : en:01:02:28.250
01:08:33.042 : en:01:08:33.042
01:11:44.000 : en:01:11:44.000
01:15:08.833 : en:01:15:08.833[/b]

[url=https://www.sparrowpics.com/image/UYe][img]https://www.sparrowpics.com/images/2015/12/10/Screens.png[/img][/url]

[URL=https://www.sparrowpics.com/image/kPvLX][IMG]https://www.sparrowpics.com/images/2017/06/28/kPvLX.th.jpg[/IMG][/URL]
[URL=https://www.sparrowpics.com/image/kP9dM][b]Click To View Screenshot[/b][/URL]
[URL=https://www.sparrowpics.com/image/kPQHV][b]Click To View Screenshot[/b][/URL]
[URL=https://www.sparrowpics.com/image/kPfCd][b]Click To View Screenshot[/b][/URL][/center] ]]>
A Neighbors Deception 2017 (Lifetime) 720p HDTV X264 Solar http://glodls.to/torrent.php?id=2588703 http://glodls.to/torrent.php?id=2588703 Tue, 27 Jun 2017 22:46:29 +0100 Movies [img]https://extraimage.net/images/2017/06/27/84da9cf28accb89c81c1dfcba5da9efc.jpg[/img]
[img]https://extraimage.net/images/2017/06/27/f2f8b37c31dcd6a9e82fc3ad469fdebc.jpg[/img]
[img]https://extraimage.net/images/2017/06/27/35c7a993f94222622b736da0cee5e5d6.jpg[/img]
[img]https://extraimage.net/images/2017/06/27/e1cbc2117fad73e9dc4e16651df94595.jpg[/img]

[url=http://www.imdb.com/title/tt6237306/]http://www.imdb.com/title/tt6237306/[/url]

[size=3][b]Summary:[/b]_ A young woman accepts an offer from her therapist neighbor to be treated for free, but she begins to fear for her own safety as she learns more about her.[/size]

Format              : MPEG-4 | AVC | Main L4
File size           : 963 MiB
Duration            : 1 h 23 min
Overall bit rate  : 1 634 kb/s

Video
Width               : 1 280 pixels
Height              : 720 pixels
aspect ratio      : 16:9

Audio
Format              : AAC | 128 Kbps | 2 channel | English



]]>
Dr.Jeff.S02E11.720p.HDTV.x264-NORiTE http://glodls.to/torrent.php?id=2588702 http://glodls.to/torrent.php?id=2588702 Tue, 27 Jun 2017 22:45:27 +0100 TV
[url=https://www.sparrowpics.com/image/LwB][img]https://www.sparrowpics.com/images/2015/12/10/Info.png[/img][/url]

[b]Complete name : dr.jeff.s02e11.720p.hdtv-norite.mkv
Format : Matroska
Format version : Version 4 / Version 2
File size : 1 003 MiB
Duration : 40 min 36 s
Overall bit rate : 3 451 kb/s
Encoded date : UTC 2017-06-27 22:38:25
Writing application : mkvmerge v9.2.0 ('Photograph') 64bit
Writing library : libebml v1.3.3 + libmatroska v1.4.4

Video
ID : 1
Format : AVC
Format/Info : Advanced Video Codec
Format profile : High@L4.1
Format settings, CABAC : Yes
Format settings, ReFrames : 5 frames
Codec ID : V_MPEG4/ISO/AVC
Duration : 40 min 36 s
Bit rate : 3 064 kb/s
Width : 1 280 pixels
Height : 720 pixels
Display aspect ratio : 16:9
Frame rate mode : Constant
Frame rate : 50.000 FPS
Color space : YUV
Chroma subsampling : 4:2:0
Bit depth : 8 bits
Scan type : Progressive
Bits/(Pixel*Frame) : 0.066
Stream size : 890 MiB (89%)
Writing library : x264 core 148 r2762 90a61ec
Encoding settings : cabac=1 / ref=5 / deblock=1:0:0 / analyse=0x3:0x113 / me=hex / subme=8 / psy=1 / psy_rd=1.00:0.00 / mixed_ref=1 / me_range=16 / chroma_me=1 / trellis=2 / 8x8dct=1 / cqm=0 / deadzone=21,11 / fast_pskip=1 / chroma_qp_offset=-2 / threads=6 / lookahead_threads=1 / sliced_threads=0 / nr=0 / decimate=1 / interlaced=0 / bluray_compat=0 / stitchable=1 / constrained_intra=0 / bframes=3 / b_pyramid=2 / b_adapt=1 / b_bias=0 / direct=3 / weightb=1 / open_gop=0 / weightp=2 / keyint=250 / keyint_min=25 / scenecut=40 / intra_refresh=0 / rc_lookahead=50 / rc=crf / mbtree=1 / crf=21.0 / qcomp=0.60 / qpmin=0 / qpmax=69 / qpstep=4 / ip_ratio=1.40 / aq=1:1.00
Default : Yes
Forced : No
Color range : Limited
Color primaries : BT.709
Transfer characteristics : BT.709
Matrix coefficients : BT.709

Audio
ID : 2
Format : AC-3
Format/Info : Audio Coding 3
Format settings, Endianness : Big
Codec ID : A_AC3
Duration : 40 min 36 s
Bit rate mode : Constant
Bit rate : 384 kb/s
Channel(s) : 6 channels
Channel positions : Front: L C R, Side: L R, LFE
Sampling rate : 48.0 kHz
Frame rate : 31.250 FPS (1536 spf)
Bit depth : 16 bits
Compression mode : Lossy
Stream size : 112 MiB (11%)
Service kind : Complete Main
Default : Yes
Forced : No[/b]

[url=https://www.sparrowpics.com/image/UYe][img]https://www.sparrowpics.com/images/2015/12/10/Screens.png[/img][/url]

[URL=https://tv.sparrowpics.com/image/0hb4][IMG]https://tv.sparrowpics.com/images/2017/06/27/0hb4.th.jpg[/IMG][/URL]
[URL=https://tv.sparrowpics.com/image/0Add][b]Click To View Screenshot[/b][/URL]
[URL=https://tv.sparrowpics.com/image/0Tas][b]Click To View Screenshot[/b][/URL]
[URL=https://tv.sparrowpics.com/image/0ZwK][b]Click To View Screenshot[/b][/URL][/center] ]]>
Assorted Magazines - June 28 2017 (True PDF) http://glodls.to/torrent.php?id=2588701 http://glodls.to/torrent.php?id=2588701 Tue, 27 Jun 2017 22:44:14 +0100 Books Assorted Magazines - June 28, 2017 (True PDF)

21 Issues | True PDF | English | 346 MB Total


================================================
================================================

Amateur Photographer - July 1, 2017
APC - July 2017
Beckett Basketball - July 2017
Beckett Sports Card Monthly - July 2017
Classic Rock - Summer 2017
COINage - July 2017
HARPER'S Magazine - July 2017
Mac Life - July 2017
Maximum PC - July 2017
Men's Fitness - August 2017 ZA
Men's Health - August 2017 USA
MOJO - August 2017
OnFitness - August 2017
PhotoPlus The Canon Magazine - July 2017
Rock & Gem - July 2017
SciFiNow 134 - 2017 UK
SLAM - August 2017
Very Interesting - August 2017
Wired - July 2017 USA
Women's Health - August 2017 USA
Xbox The Official Magazine - August 2017



[url=http://uploads.im/lioyE.jpg][img]http://sl.uploads.im/t/lioyE.jpg[/img][/url]

]]>
Flying.into.the.Wind.1983.BDRip.x264-FUTURiSTiC http://glodls.to/torrent.php?id=2588700 http://glodls.to/torrent.php?id=2588700 Tue, 27 Jun 2017 22:40:40 +0100 Movies [color=red][b]
Flying.into.the.Wind.1983.BDRip.x264-FUTURiSTiC

[/b][/color]


IMDb: http://www.imdb.com/title/tt0231599/





[url=https://boltimg.com/image/t52z][img]https://boltimg.com/images/t52z.png[/img][/url]



[color=green][b]
General

(Duration): 1h 13mn
(FileSize): 1 006 MiB



Audio

(Format): AAC - Advanced Audio Codec
(Codec): AAC LC



Video

(Format): AVC - Advanced Video Codec
(Media): video/H264
(Format): x264
(Resolution): 720x540 px
(AspectRatio): 4:3
(FrameRate): 24.000 fps




[/b][/color]


[url=https://boltimg.com/image/tzTE][img]https://boltimg.com/images/tzTE.png[/img][/url]



[color=purple][b](Click to enlarge)[/b][/color]

[url=https://boltimg.com/image/W30kx][img]https://boltimg.com/images/W30kx.th.jpg[/img][/url] [url=https://boltimg.com/image/W3DIX][img]https://boltimg.com/images/W3DIX.th.jpg[/img][/url] [url=https://boltimg.com/image/W3Oyw][img]https://boltimg.com/images/W3Oyw.th.jpg[/img][/url] [url=https://boltimg.com/image/W3jzL][img]https://boltimg.com/images/W3jzL.th.jpg[/img][/url] [url=https://boltimg.com/image/W3qZp][img]https://boltimg.com/images/W3qZp.th.jpg[/img][/url] [url=https://boltimg.com/image/W3NgC][img]https://boltimg.com/images/W3NgC.th.jpg[/img][/url]

[/center]
]]>
Flying.into.the.Wind.1983.BDRip.x264-FUTURiSTiC http://glodls.to/torrent.php?id=2588699 http://glodls.to/torrent.php?id=2588699 Tue, 27 Jun 2017 22:38:30 +0100 Movies
[b]ImDb: [URL]http://www.imdb.com/title/tt0231599[/URL][/b]

[url=https://www.sparrowpics.com/image/LwB][img]https://www.sparrowpics.com/images/2015/12/10/Info.png[/img][/url]

[b]Complete name : Flying.into.the.Wind.1983.BDRip.x264-FUTURiSTiC.mkv
Format : Matroska
Format version : Version 4 / Version 2
File size : 1 006 MiB
Duration : 1 h 13 min
Overall bit rate : 1 903 kb/s
Encoded date : UTC 2017-06-27 03:42:19
Writing application : mkvmerge v13.0.0 ('The Juggler') 64bit
Writing library : libebml v1.3.4 + libmatroska v1.4.5

Video
ID : 1
Format : AVC
Format/Info : Advanced Video Codec
Format profile : High@L3.1
Format settings, CABAC : Yes
Format settings, ReFrames : 11 frames
Codec ID : V_MPEG4/ISO/AVC
Duration : 1 h 13 min
Bit rate : 1 822 kb/s
Width : 720 pixels
Height : 540 pixels
Display aspect ratio : 4:3
Frame rate mode : Constant
Frame rate : 24.000 FPS
Color space : YUV
Chroma subsampling : 4:2:0
Bit depth : 8 bits
Scan type : Progressive
Bits/(Pixel*Frame) : 0.195
Stream size : 963 MiB (96%)
Writing library : x264 core 150 r2833 df79067
Encoding settings : cabac=1 / ref=11 / deblock=1:-3:-3 / analyse=0x3:0x133 / me=umh / subme=10 / psy=1 / psy_rd=1.00:0.25 / mixed_ref=1 / me_range=24 / chroma_me=1 / trellis=2 / 8x8dct=1 / cqm=0 / deadzone=21,11 / fast_pskip=1 / chroma_qp_offset=-4 / threads=17 / lookahead_threads=2 / sliced_threads=0 / nr=0 / decimate=1 / interlaced=0 / bluray_compat=0 / constrained_intra=0 / bframes=8 / b_pyramid=2 / b_adapt=2 / b_bias=0 / direct=3 / weightb=1 / open_gop=0 / weightp=2 / keyint=240 / keyint_min=24 / scenecut=40 / intra_refresh=0 / rc_lookahead=60 / rc=crf / mbtree=1 / crf=23.0 / qcomp=0.60 / qpmin=0 / qpmax=69 / qpstep=4 / ip_ratio=1.40 / aq=1:0.75
Default : Yes
Forced : No
Color range : Limited
Matrix coefficients : BT.709

Audio
ID : 2
Format : AAC
Format/Info : Advanced Audio Codec
Format profile : LC
Codec ID : A_AAC
Duration : 1 h 13 min
Bit rate : 79.5 kb/s
Channel(s) : 1 channel
Channel positions : Front: C
Sampling rate : 48.0 kHz
Frame rate : 46.875 FPS (1024 spf)
Compression mode : Lossy
Delay relative to video : 9 ms
Stream size : 42.0 MiB (4%)
Language : English
Default : Yes
Forced : No

Menu
00:00:00.000 : en:00:00:00.000
00:05:32.125 : en:00:05:32.125
00:13:27.625 : en:00:13:27.625
00:18:20.958 : en:00:18:20.958
00:26:46.583 : en:00:26:46.583
00:35:08.000 : en:00:35:08.000
00:42:29.417 : en:00:42:29.417
00:47:09.625 : en:00:47:09.625
00:52:27.750 : en:00:52:27.750
01:00:06.333 : en:01:00:06.333
01:03:08.250 : en:01:03:08.250
01:08:00.167 : en:01:08:00.167[/b]

[url=https://www.sparrowpics.com/image/UYe][img]https://www.sparrowpics.com/images/2015/12/10/Screens.png[/img][/url]

[URL=https://www.sparrowpics.com/image/kPj99][IMG]https://www.sparrowpics.com/images/2017/06/28/kPj99.th.jpg[/IMG][/URL]
[URL=https://www.sparrowpics.com/image/kP7Ib][b]Click To View Screenshot[/b][/URL]
[URL=https://www.sparrowpics.com/image/kPKr3][b]Click To View Screenshot[/b][/URL]
[URL=https://www.sparrowpics.com/image/kPknK][b]Click To View Screenshot[/b][/URL][/center] ]]>
Heroes for Sale 1933 DVDRip XViD. http://glodls.to/torrent.php?id=2588698 http://glodls.to/torrent.php?id=2588698 Tue, 27 Jun 2017 22:29:19 +0100 Movies
[b]ImDb: [URL]http://www.imdb.com/title/tt0024115[/URL][/b]

[url=https://www.sparrowpics.com/image/LwB][img]https://www.sparrowpics.com/images/2015/12/10/Info.png[/img][/url]

[b]Complete name : Heroes for Sale 1933 DVDRip XViD.avi
Format : AVI
Format/Info : Audio Video Interleave
File size : 696 MiB
Duration : 1 h 11 min
Overall bit rate mode : Variable
Overall bit rate : 1 362 kb/s
Writing application : Nandub v1.0rc2
Writing library : Nandub build 1853/release

Video
ID : 0
Format : MPEG-4 Visual
Format profile : Advanced Simple@L5
Format settings, BVOP : No
Format settings, QPel : No
Format settings, GMC : No warppoints
Format settings, Matrix : Default (H.263)
Codec ID : XVID
Codec ID/Hint : XviD
Duration : 1 h 11 min
Bit rate : 1 277 kb/s
Width : 544 pixels
Height : 400 pixels
Display aspect ratio : 4:3
Frame rate : 23.976 (24000/1001) FPS
Color space : YUV
Chroma subsampling : 4:2:0
Bit depth : 8 bits
Scan type : Progressive
Compression mode : Lossy
Bits/(Pixel*Frame) : 0.245
Stream size : 652 MiB (94%)
Writing library : XviD 1.1.2 (UTC 2006-11-01)

Audio
ID : 1
Format : MPEG Audio
Format version : Version 1
Format profile : Layer 3
Codec ID : 55
Codec ID/Hint : MP3
Duration : 1 h 11 min
Bit rate mode : Variable
Bit rate : 72.2 kb/s
Minimum bit rate : 32.0 kb/s
Channel(s) : 1 channel
Sampling rate : 48.0 kHz
Compression mode : Lossy
Stream size : 36.9 MiB (5%)
Alignment : Aligned on interleaves
Interleave, duration : 24 ms (0.58 video frame)
Interleave, preload duration : 244 ms
Writing library : LAME3.96r
Encoding settings : -m m -V 4 -q 3 -lowpass 18 --vbr-old -b 32[/b]

[url=https://www.sparrowpics.com/image/UYe][img]https://www.sparrowpics.com/images/2015/12/10/Screens.png[/img][/url]

[URL=https://www.sparrowpics.com/image/kPHHZ][IMG]https://www.sparrowpics.com/images/2017/06/28/kPHHZ.th.jpg[/IMG][/URL]
[URL=https://www.sparrowpics.com/image/kPGBx][b]Click To View Screenshot[/b][/URL]
[URL=https://www.sparrowpics.com/image/kPDuN][b]Click To View Screenshot[/b][/URL]
[URL=https://www.sparrowpics.com/image/kPVNY][b]Click To View Screenshot[/b][/URL][/center] ]]>
Heroes.for.Sale.1933.DVDRip.XViD http://glodls.to/torrent.php?id=2588697 http://glodls.to/torrent.php?id=2588697 Tue, 27 Jun 2017 22:28:08 +0100 Movies [color=red][b]
Heroes.for.Sale.1933.DVDRip.XViD

[/b][/color]


IMDb: http://www.imdb.com/title/tt0024115/





[url=https://boltimg.com/image/t52z][img]https://boltimg.com/images/t52z.png[/img][/url]



[color=green][b]
General

(Duration): 1h 11mn
(FileSize): 696 MiB



Audio

(Format): MPEG Audio -
(Codec): MPA1L3



Video

(Format): MPEG-4 Visual -
(Media): video/MP4V-ES
(Format): XviD
(Resolution): 544x400 px
(AspectRatio): 4:3
(FrameRate): 23.976 fps




[/b][/color]


[url=https://boltimg.com/image/tzTE][img]https://boltimg.com/images/tzTE.png[/img][/url]



[color=purple][b](Click to enlarge)[/b][/color]

[url=https://boltimg.com/image/W3pZA][img]https://boltimg.com/images/W3pZA.th.jpg[/img][/url] [url=https://boltimg.com/image/W3JPk][img]https://boltimg.com/images/W3JPk.th.jpg[/img][/url] [url=https://boltimg.com/image/W3lim][img]https://boltimg.com/images/W3lim.th.jpg[/img][/url] [url=https://boltimg.com/image/W38GI][img]https://boltimg.com/images/W38GI.th.jpg[/img][/url] [url=https://boltimg.com/image/W3tb5][img]https://boltimg.com/images/W3tb5.th.jpg[/img][/url] [url=https://boltimg.com/image/W3zRW][img]https://boltimg.com/images/W3zRW.th.jpg[/img][/url]

[/center]
]]>
My Wife Caught Me Assfucking Her Mother 11 iNTERNAL XXX XviD SD http://glodls.to/torrent.php?id=2588696 http://glodls.to/torrent.php?id=2588696 Tue, 27 Jun 2017 22:24:35 +0100 Adult XXX
[b]Screenshots:[/b]

[url]http://imgking.co/imgs-5952db258ebc3.html[/url]

[url]http://imgking.co/imgs-5952db2586cda.html[/url]

[url]http://imgking.co/imgs-5952db257700b.html[/url]

[url]http://imgking.co/imgs-5952db1fd3290.html[/url] ]]>
2017 NBA Awards 26 06 17 [WWRG] http://glodls.to/torrent.php?id=2588695 http://glodls.to/torrent.php?id=2588695 Tue, 27 Jun 2017 22:22:57 +0100 TV

[img]https://worldimages.gallery/images/2017/06/08/r2gIYXw.png[/img] ]]>
Birth.of.a.Nation.1983.BDRip.x264-FUTURiSTiC http://glodls.to/torrent.php?id=2588694 http://glodls.to/torrent.php?id=2588694 Tue, 27 Jun 2017 22:16:05 +0100 Movies [color=red][b]
Birth.of.a.Nation.1983.BDRip.x264-FUTURiSTiC

[/b][/color]


IMDb: http://www.imdb.com/title/tt0083656/





[url=https://boltimg.com/image/t52z][img]https://boltimg.com/images/t52z.png[/img][/url]



[color=green][b]
General

(Duration): 1h 21mn
(FileSize): 1.03 GiB



Audio

(Format): AAC - Advanced Audio Codec
(Codec): AAC LC



Video

(Format): AVC - Advanced Video Codec
(Media): video/H264
(Format): x264
(Resolution): 720x540 px
(AspectRatio): 4:3
(FrameRate): 24.000 fps




[/b][/color]


[url=https://boltimg.com/image/tzTE][img]https://boltimg.com/images/tzTE.png[/img][/url]



[color=purple][b](Click to enlarge)[/b][/color]

[url=https://boltimg.com/image/W37bP][img]https://boltimg.com/images/W37bP.th.jpg[/img][/url] [url=https://boltimg.com/image/W3R7e][img]https://boltimg.com/images/W3R7e.th.jpg[/img][/url] [url=https://boltimg.com/image/W3njc][img]https://boltimg.com/images/W3njc.th.jpg[/img][/url] [url=https://boltimg.com/image/W3FIu][img]https://boltimg.com/images/W3FIu.th.jpg[/img][/url] [url=https://boltimg.com/image/W3VW3][img]https://boltimg.com/images/W3VW3.th.jpg[/img][/url] [url=https://boltimg.com/image/W3ctn][img]https://boltimg.com/images/W3ctn.th.jpg[/img][/url]

[/center]
]]>
Birth.of.a.Nation.1983.BDRip.x264-FUTURiSTiC http://glodls.to/torrent.php?id=2588693 http://glodls.to/torrent.php?id=2588693 Tue, 27 Jun 2017 22:12:26 +0100 Movies
[b]ImDb: [URL]http://www.imdb.com/title/tt4196450[/URL][/b]

[url=https://www.sparrowpics.com/image/LwB][img]https://www.sparrowpics.com/images/2015/12/10/Info.png[/img][/url]

[b]Complete name : Birth.of.a.Nation.1983.BDRip.x264-FUTURiSTiC.mkv
Format : Matroska
Format version : Version 4 / Version 2
File size : 1.03 GiB
Duration : 1 h 21 min
Overall bit rate : 1 800 kb/s
Encoded date : UTC 2017-06-27 03:42:08
Writing application : mkvmerge v13.0.0 ('The Juggler') 64bit
Writing library : libebml v1.3.4 + libmatroska v1.4.5

Video
ID : 1
Format : AVC
Format/Info : Advanced Video Codec
Format profile : High@L3.1
Format settings, CABAC : Yes
Format settings, ReFrames : 11 frames
Codec ID : V_MPEG4/ISO/AVC
Duration : 1 h 21 min
Bit rate : 1 714 kb/s
Width : 720 pixels
Height : 540 pixels
Display aspect ratio : 4:3
Frame rate mode : Constant
Frame rate : 24.000 FPS
Color space : YUV
Chroma subsampling : 4:2:0
Bit depth : 8 bits
Scan type : Progressive
Bits/(Pixel*Frame) : 0.184
Stream size : 1 005 MiB (95%)
Writing library : x264 core 150 r2833 df79067
Encoding settings : cabac=1 / ref=11 / deblock=1:-3:-3 / analyse=0x3:0x133 / me=umh / subme=10 / psy=1 / psy_rd=1.00:0.25 / mixed_ref=1 / me_range=24 / chroma_me=1 / trellis=2 / 8x8dct=1 / cqm=0 / deadzone=21,11 / fast_pskip=1 / chroma_qp_offset=-4 / threads=17 / lookahead_threads=2 / sliced_threads=0 / nr=0 / decimate=1 / interlaced=0 / bluray_compat=0 / constrained_intra=0 / bframes=8 / b_pyramid=2 / b_adapt=2 / b_bias=0 / direct=3 / weightb=1 / open_gop=0 / weightp=2 / keyint=240 / keyint_min=24 / scenecut=40 / intra_refresh=0 / rc_lookahead=60 / rc=crf / mbtree=1 / crf=21.0 / qcomp=0.60 / qpmin=0 / qpmax=69 / qpstep=4 / ip_ratio=1.40 / aq=1:0.75
Default : Yes
Forced : No
Color range : Limited
Matrix coefficients : BT.709

Audio
ID : 2
Format : AAC
Format/Info : Advanced Audio Codec
Format profile : LC
Codec ID : A_AAC
Duration : 1 h 21 min
Bit rate : 83.7 kb/s
Channel(s) : 1 channel
Channel positions : Front: C
Sampling rate : 48.0 kHz
Frame rate : 46.875 FPS (1024 spf)
Compression mode : Lossy
Delay relative to video : 9 ms
Stream size : 49.1 MiB (5%)
Language : English
Default : Yes
Forced : No

Menu
00:00:00.000 : en:00:00:00.000
00:07:15.000 : en:00:07:15.000
00:11:20.000 : en:00:11:20.000
00:17:46.000 : en:00:17:46.000
00:22:47.000 : en:00:22:47.000
00:32:25.000 : en:00:32:25.000
00:39:40.917 : en:00:39:40.917
00:48:40.583 : en:00:48:40.583
00:55:04.125 : en:00:55:04.125
01:02:24.500 : en:01:02:24.500
01:10:07.375 : en:01:10:07.375
01:13:45.208 : en:01:13:45.208[/b]

[url=https://www.sparrowpics.com/image/UYe][img]https://www.sparrowpics.com/images/2015/12/10/Screens.png[/img][/url]

[URL=https://www.sparrowpics.com/image/kPSac][IMG]https://www.sparrowpics.com/images/2017/06/28/kPSac.th.jpg[/IMG][/URL]
[URL=https://www.sparrowpics.com/image/kPen6][b]Click To View Screenshot[/b][/URL]
[URL=https://www.sparrowpics.com/image/kPtJh][b]Click To View Screenshot[/b][/URL]
[URL=https://www.sparrowpics.com/image/kP8At][b]Click To View Screenshot[/b][/URL][/center] ]]>
MomsLickTeens 17 06 27 Naomi Woods And Alena Croft Sealing The Deal XXX XviD SD http://glodls.to/torrent.php?id=2588692 http://glodls.to/torrent.php?id=2588692 Tue, 27 Jun 2017 22:12:20 +0100 Adult XXX
[b]Screenshots:[/b]

[url]http://imgking.co/imgs-5952d8469040f.html[/url]

[url]http://imgking.co/imgs-5952d846837b1.html[/url]

[url]http://imgking.co/imgs-5952d8467b0ba.html[/url]

[url]http://imgking.co/imgs-5952d844b582f.html[/url] ]]>
FakeDrivingSchool 17 06 27 Barbie Sins XXX XviD SD http://glodls.to/torrent.php?id=2588691 http://glodls.to/torrent.php?id=2588691 Tue, 27 Jun 2017 22:08:50 +0100 Adult XXX
[b]Screenshots:[/b]

[url]http://imgking.co/imgs-5952d77472161.html[/url]

[url]http://imgking.co/imgs-5952d7746a044.html[/url]

[url]http://imgking.co/imgs-5952d77461f83.html[/url]

[url]http://imgking.co/imgs-5952d772bd1f8.html[/url] ]]>
PublicAgent 17 06 27 Lullu Gun XXX XviD SD http://glodls.to/torrent.php?id=2588690 http://glodls.to/torrent.php?id=2588690 Tue, 27 Jun 2017 22:08:26 +0100 Adult XXX
[b]Screenshots:[/b]

[url]http://imgking.co/imgs-5952d75c24a7f.html[/url]

[url]http://imgking.co/imgs-5952d75c1cb4d.html[/url]

[url]http://imgking.co/imgs-5952d75c0c036.html[/url]

[url]http://imgking.co/imgs-5952d75a0b218.html[/url] ]]>
Experiment Perilous 1944 DVDRip XViD. http://glodls.to/torrent.php?id=2588689 http://glodls.to/torrent.php?id=2588689 Tue, 27 Jun 2017 22:07:17 +0100 Movies
[b]ImDb: [URL]http://www.imdb.com/title/tt0036807[/URL][/b]

[url=https://www.sparrowpics.com/image/LwB][img]https://www.sparrowpics.com/images/2015/12/10/Info.png[/img][/url]

[b]Complete name : Experiment Perilous 1944 DVDRip XViD.avi
Format : AVI
Format/Info : Audio Video Interleave
File size : 698 MiB
Duration : 1 h 27 min
Overall bit rate mode : Variable
Overall bit rate : 1 119 kb/s
Writing application : VirtualDubMod 1.5.10.2 (build 2540/release)
Writing library : VirtualDubMod build 2540/release

Video
ID : 0
Format : MPEG-4 Visual
Format profile : Advanced Simple@L5
Format settings, BVOP : 2
Format settings, QPel : No
Format settings, GMC : No warppoints
Format settings, Matrix : Default (H.263)
Codec ID : XVID
Codec ID/Hint : XviD
Duration : 1 h 27 min
Bit rate : 974 kb/s
Width : 640 pixels
Height : 480 pixels
Display aspect ratio : 4:3
Frame rate : 25.000 FPS
Color space : YUV
Chroma subsampling : 4:2:0
Bit depth : 8 bits
Scan type : Progressive
Compression mode : Lossy
Bits/(Pixel*Frame) : 0.127
Stream size : 608 MiB (87%)
Writing library : XviD 1.2.1 (UTC 2008-12-04)

Audio
ID : 1
Format : MPEG Audio
Format version : Version 1
Format profile : Layer 3
Codec ID : 55
Codec ID/Hint : MP3
Duration : 1 h 27 min
Bit rate mode : Variable
Bit rate : 132 kb/s
Nominal bit rate : 144 kb/s
Channel(s) : 1 channel
Sampling rate : 48.0 kHz
Compression mode : Lossy
Stream size : 82.4 MiB (12%)
Alignment : Aligned on interleaves
Interleave, duration : 24 ms (0.60 video frame)
Interleave, preload duration : 549 ms
Writing library : LAME3.98
Encoding settings : -m m -V 4 -q 3 -lowpass 20.5 --abr 144[/b]

[url=https://www.sparrowpics.com/image/UYe][img]https://www.sparrowpics.com/images/2015/12/10/Screens.png[/img][/url]

[URL=https://www.sparrowpics.com/image/kPbuW][IMG]https://www.sparrowpics.com/images/2017/06/28/kPbuW.th.jpg[/IMG][/URL]
[URL=https://www.sparrowpics.com/image/kP4En][b]Click To View Screenshot[/b][/URL]
[URL=https://www.sparrowpics.com/image/kP59y][b]Click To View Screenshot[/b][/URL]
[URL=https://www.sparrowpics.com/image/kPNIJ][b]Click To View Screenshot[/b][/URL][/center] ]]>
Cold.Water.Cowboys.S03E06.720p.HDTV.x264-DOCERE http://glodls.to/torrent.php?id=2588688 http://glodls.to/torrent.php?id=2588688 Tue, 27 Jun 2017 22:06:39 +0100 TV
[url=https://www.sparrowpics.com/image/LwB][img]https://www.sparrowpics.com/images/2015/12/10/Info.png[/img][/url]

[b]Complete name : cold.water.cowboys.s03e06.720p.hdtv-docere.mkv
Format : Matroska
Format version : Version 4 / Version 2
File size : 978 MiB
Duration : 45 min 59 s
Overall bit rate : 2 973 kb/s
Encoded date : UTC 2017-06-27 22:00:49
Writing application : mkvmerge v9.2.0 ('Photograph') 64bit
Writing library : libebml v1.3.3 + libmatroska v1.4.4

Video
ID : 1
Format : AVC
Format/Info : Advanced Video Codec
Format profile : High@L4.1
Format settings, CABAC : Yes
Format settings, ReFrames : 5 frames
Codec ID : V_MPEG4/ISO/AVC
Duration : 45 min 59 s
Bit rate : 2 778 kb/s
Width : 1 280 pixels
Height : 720 pixels
Display aspect ratio : 16:9
Frame rate mode : Constant
Frame rate : 50.000 FPS
Color space : YUV
Chroma subsampling : 4:2:0
Bit depth : 8 bits
Scan type : Progressive
Bits/(Pixel*Frame) : 0.060
Stream size : 914 MiB (93%)
Writing library : x264 core 148 r2762 90a61ec
Encoding settings : cabac=1 / ref=5 / deblock=1:0:0 / analyse=0x3:0x113 / me=hex / subme=8 / psy=1 / psy_rd=1.00:0.00 / mixed_ref=1 / me_range=16 / chroma_me=1 / trellis=2 / 8x8dct=1 / cqm=0 / deadzone=21,11 / fast_pskip=1 / chroma_qp_offset=-2 / threads=4 / lookahead_threads=1 / sliced_threads=0 / nr=0 / decimate=1 / interlaced=0 / bluray_compat=0 / stitchable=1 / constrained_intra=0 / bframes=3 / b_pyramid=2 / b_adapt=1 / b_bias=0 / direct=3 / weightb=1 / open_gop=0 / weightp=2 / keyint=250 / keyint_min=25 / scenecut=40 / intra_refresh=0 / rc_lookahead=50 / rc=crf / mbtree=1 / crf=21.0 / qcomp=0.60 / qpmin=0 / qpmax=69 / qpstep=4 / ip_ratio=1.40 / aq=1:1.00
Default : Yes
Forced : No
Color range : Limited
Color primaries : BT.709
Transfer characteristics : BT.709
Matrix coefficients : BT.709

Audio
ID : 2
Format : MPEG Audio
Format version : Version 1
Format profile : Layer 2
Codec ID : A_MPEG/L2
Codec ID/Hint : MP2
Duration : 45 min 59 s
Bit rate mode : Constant
Bit rate : 192 kb/s
Channel(s) : 2 channels
Sampling rate : 48.0 kHz
Frame rate : 41.667 FPS (1152 spf)
Compression mode : Lossy
Stream size : 63.2 MiB (6%)
Default : Yes
Forced : No[/b]

[url=https://www.sparrowpics.com/image/UYe][img]https://www.sparrowpics.com/images/2015/12/10/Screens.png[/img][/url]

[URL=https://tv.sparrowpics.com/image/0XtB][IMG]https://tv.sparrowpics.com/images/2017/06/27/0XtB.th.jpg[/IMG][/URL]
[URL=https://tv.sparrowpics.com/image/0zcY][b]Click To View Screenshot[/b][/URL]
[URL=https://tv.sparrowpics.com/image/05iT][b]Click To View Screenshot[/b][/URL]
[URL=https://tv.sparrowpics.com/image/0dNb][b]Click To View Screenshot[/b][/URL][/center] ]]>
Experiment.Perilous.1944.DVDRip.XViD http://glodls.to/torrent.php?id=2588687 http://glodls.to/torrent.php?id=2588687 Tue, 27 Jun 2017 22:06:32 +0100 Movies [color=red][b]
Experiment.Perilous.1944.DVDRip.XViD

[/b][/color]


IMDb: http://www.imdb.com/title/tt0036807/





[url=https://boltimg.com/image/t52z][img]https://boltimg.com/images/t52z.png[/img][/url]



[color=green][b]
General

(Duration): 1h 27mn
(FileSize): 698 MiB



Audio

(Format): MPEG Audio -
(Codec): MPA1L3



Video

(Format): MPEG-4 Visual -
(Media): video/MP4V-ES
(Format): XviD
(Resolution): 640x480 px
(AspectRatio): 4:3
(FrameRate): 25.000 fps




[/b][/color]


[url=https://boltimg.com/image/tzTE][img]https://boltimg.com/images/tzTE.png[/img][/url]



[color=purple][b](Click to enlarge)[/b][/color]

[url=https://boltimg.com/image/W3MWS][img]https://boltimg.com/images/W3MWS.th.jpg[/img][/url] [url=https://boltimg.com/image/W3QtE][img]https://boltimg.com/images/W3QtE.th.jpg[/img][/url] [url=https://boltimg.com/image/W3yUz][img]https://boltimg.com/images/W3yUz.th.jpg[/img][/url] [url=https://boltimg.com/image/W3SPM][img]https://boltimg.com/images/W3SPM.th.jpg[/img][/url] [url=https://boltimg.com/image/W3diZ][img]https://boltimg.com/images/W3diZ.th.jpg[/img][/url] [url=https://boltimg.com/image/W3m9l][img]https://boltimg.com/images/W3m9l.th.jpg[/img][/url]

[/center]
]]>
The Fate of the Furious 2017 WEB-DL x264 YG http://glodls.to/torrent.php?id=2588686 http://glodls.to/torrent.php?id=2588686 Tue, 27 Jun 2017 22:06:23 +0100 Movies [img]https://boltimg.com/images/ZJyRz.jpg[/img]
*******************************************************************************
The.Fate.of.the.Furious.2017.WEB-DL.x264.Dual.YG
*******************************************************************************

-------------------------------------------------------------------------------
General Information
-------------------------------------------------------------------------------
Type.................: Movie
Platform.............: Windows 7



Color................: 8 bit
FPS..................: 23.976 (24000/1001)
Source...............: WEB-DL
Original Format......: FGT
Genre................: Action, Adventure, Crime
IMDb Rating..........: 7,0/10
Movie Information....: www.imdb.com/title/tt4630562/

-------------------------------------------------------------------------------
Post Information
-------------------------------------------------------------------------------
Posted by............: Yerisan710/MaxMad
Posted on............: 27/06/2017

-------------------------------------------------------------------------------
Release Notes
-------------------------------------------------------------------------------
Video
ID : 1
Format : AVC
Format/Info : Advanced Video Codec
Bit rate : 1 100 kb/s
Width : 720 pixels
Height : 304 pixels
Language : English

Audio #1
ID : 2
Format : AAC
Format/Info : Advanced Audio Codec
Language : English

Audio #2
ID : 3
Format : AC-3
Format/Info : Audio Coding 3
Language : Spanish
-------------------------------------------------------------------------------

-------------------------------------------------------------------------------
[img]https://boltimg.com/images/ZJSkM.jpg[/img]
[img]https://boltimg.com/images/W34HO.jpg[/img]
[img]https://boltimg.com/images/ZJWoE.png[/img][/center] ]]>
DaneJones 17 06 27 Lullu Gun XXX XviD SD http://glodls.to/torrent.php?id=2588685 http://glodls.to/torrent.php?id=2588685 Tue, 27 Jun 2017 22:03:12 +0100 Adult XXX
[b]Screenshots:[/b]

[url]http://imgking.co/imgs-5952d622ac527.html[/url]

[url]http://imgking.co/imgs-5952d622a10db.html[/url]

[url]http://imgking.co/imgs-5952d622908f3.html[/url]

[url]http://imgking.co/imgs-5952d620cb0a4.html[/url] ]]>
Rugby Union Internationals [Hurricanes vs British And Irish Lions] 27 06 17 [WWRG] http://glodls.to/torrent.php?id=2588684 http://glodls.to/torrent.php?id=2588684 Tue, 27 Jun 2017 22:00:30 +0100 TV

[img]https://worldimages.gallery/images/2017/06/08/r2gIYXw.png[/img] ]]>
Dr.Jeff.S02E11.HDTV.x264-NORiTE http://glodls.to/torrent.php?id=2588683 http://glodls.to/torrent.php?id=2588683 Tue, 27 Jun 2017 21:59:16 +0100 TV
[url=https://www.sparrowpics.com/image/LwB][img]https://www.sparrowpics.com/images/2015/12/10/Info.png[/img][/url]

[b]Complete name : dr.jeff.s02e11.hdtv-norite.mkv
Format : Matroska
Format version : Version 4 / Version 2
File size : 324 MiB
Duration : 40 min 37 s
Overall bit rate : 1 116 kb/s
Encoded date : UTC 2017-06-27 21:59:02
Writing application : mkvmerge v9.2.0 ('Photograph') 64bit
Writing library : libebml v1.3.3 + libmatroska v1.4.4

Video
ID : 1
Format : AVC
Format/Info : Advanced Video Codec
Format profile : High@L3.1
Format settings, CABAC : Yes
Format settings, ReFrames : 5 frames
Codec ID : V_MPEG4/ISO/AVC
Duration : 40 min 36 s
Bit rate : 987 kb/s
Width : 720 pixels
Height : 404 pixels
Display aspect ratio : 16:9
Frame rate mode : Constant
Frame rate : 50.000 FPS
Color space : YUV
Chroma subsampling : 4:2:0
Bit depth : 8 bits
Scan type : Progressive
Bits/(Pixel*Frame) : 0.068
Stream size : 287 MiB (88%)
Writing library : x264 core 148 r2762 90a61ec
Encoding settings : cabac=1 / ref=5 / deblock=1:0:0 / analyse=0x3:0x113 / me=hex / subme=8 / psy=1 / psy_rd=1.00:0.00 / mixed_ref=1 / me_range=16 / chroma_me=1 / trellis=2 / 8x8dct=1 / cqm=0 / deadzone=21,11 / fast_pskip=1 / chroma_qp_offset=-2 / threads=6 / lookahead_threads=1 / sliced_threads=0 / nr=0 / decimate=1 / interlaced=0 / bluray_compat=0 / stitchable=1 / constrained_intra=0 / bframes=3 / b_pyramid=2 / b_adapt=1 / b_bias=0 / direct=3 / weightb=1 / open_gop=0 / weightp=2 / keyint=250 / keyint_min=25 / scenecut=40 / intra_refresh=0 / rc_lookahead=50 / rc=crf / mbtree=1 / crf=22.0 / qcomp=0.60 / qpmin=0 / qpmax=69 / qpstep=4 / ip_ratio=1.40 / aq=1:1.00
Default : Yes
Forced : No
Color range : Limited
Color primaries : BT.709
Transfer characteristics : BT.709
Matrix coefficients : BT.709

Audio
ID : 2
Format : AAC
Format/Info : Advanced Audio Codec
Format profile : LC
Codec ID : A_AAC
Duration : 40 min 37 s
Bit rate : 125 kb/s
Channel(s) : 2 channels
Channel positions : Front: L R
Sampling rate : 48.0 kHz
Frame rate : 46.875 FPS (1024 spf)
Compression mode : Lossy
Stream size : 36.4 MiB (11%)
Default : Yes
Forced : No[/b]

[url=https://www.sparrowpics.com/image/UYe][img]https://www.sparrowpics.com/images/2015/12/10/Screens.png[/img][/url]

[URL=https://tv.sparrowpics.com/image/0kK3][IMG]https://tv.sparrowpics.com/images/2017/06/27/0kK3.th.jpg[/IMG][/URL]
[URL=https://tv.sparrowpics.com/image/0Opf][b]Click To View Screenshot[/b][/URL]
[URL=https://tv.sparrowpics.com/image/0v0r][b]Click To View Screenshot[/b][/URL]
[URL=https://tv.sparrowpics.com/image/003e][b]Click To View Screenshot[/b][/URL][/center] ]]>